百度云电影论坛

 找回密码
 立即注册

宏观世界 Cosmos.2019.1080p.BluRay.x264.DTS-HD.MA.5.1-CHD 12.68GB

[复制链接]

百度云电影 发表于 2020-10-17 09:26:36 | 显示全部楼层 |阅读模式
帖子完整标题:宏观世界 Cosmos.2019.1080p.BluRay.x264.DTS-HD.MA.5.1-CHD 12.68GB





◎译  名 宏观世界
◎片  名 Cosmos
◎年  代 2019
◎产  地 英国
◎类  别 科幻 / 悬疑 / 冒险
◎语  言 英语
◎上映日期 2019-11-07(英国)
◎IMDb评分  5.8/10 from 2508 users
◎片  长 128分钟
◎导  演 艾略特·威弗 Elliot Weaver / 赞德·威弗 Zander Weaver
◎编  剧 艾略特·威弗 Elliot Weaver / 赞德·威弗 Zander Weaver
◎主  演 Arjun Singh Panam
       约书亚·福特 Joshua Ford
       Tom England
       本·瓦尔迪 Ben Vardy
       Mike Coletta
       Marc Baylis
       Simon Worthington


◎标  签 科幻 | 英国 | 独立 | 2019 | 悬疑 | 电影 | 星际 | 震撼人心

◎简  介   

  只有他们能侦听到的太空的神秘声音?他们到底发现了什么?三位天文学家意外地截获了他们认为是来自遥远的外星文明的信号,但事实比他们任何人想象的都要不可思议。该片制作历时五年,四个工作人员,三个演员,零预算的独立电影。
Video
ID                                       : 1
Format                                   : AVC
Format/Info                              : Advanced Video Codec
Format settings                          : CABAC / 4 Ref Frames
Format settings, CABAC                   : Yes
Format settings, Reference frames        : 4 frames
Codec ID                                 : V_MPEG4/ISO/AVC
Duration                                 : 2 h 8 min
Bit rate                                 : 10.3 Mb/s
Width                                    : 1 920 pixels
Height                                   : 800 pixels
Display aspect ratio                     : 2.40:1
Frame rate mode                          : Constant
Frame rate                               : 23.976 (24000/1001/189150) FPS
Color space                              : YUV
Chroma subsampling                       : 4:2:0
Bit depth                                : 8 bits
Scan type                                : Progressive
Bits/(Pixel*Frame)                       : 0.280
Stream size                              : 9.28 GiB (73%)
Writing library                          : x264 core 157 r2867+150 7e91e0e t_mod_Custom_2
Encoding settings                        : cabac=1 / ref=4 / deblock=1:-3:-3 / analyse=0x3:0x133 / me=umh / subme=11 / psy=1 / fade_compensate=0.00 / psy_rd=0.90:0.10 / mixed_ref=1 / me_range=64 / chroma_me=1 / trellis=2 / 8x8dct=1 / cqm=0 / deadzone=21,11 / fast_pskip=0 / chroma_qp_offset=-4 / threads=25 / lookahead_threads=4 / sliced_threads=0 / nr=0 / decimate=1 / interlaced=0 / bluray_compat=0 / constrained_intra=0 / fgo=0 / bframes=8 / b_pyramid=2 / b_adapt=2 / b_bias=0 / direct=3 / weightb=1 / open_gop=0 / weightp=2 / keyint=250 / keyint_min=23 / scenecut=40 / intra_refresh=0 / rc_lookahead=60 / rc=crf / mbtree=0 / crf=17.0000 / qcomp=0.70 / qpmin=0:0:0 / qpmax=69:69:69 / qpstep=4 / vbv_maxrate=35000 / vbv_bufsize=35000 / crf_max=0.0 / nal_hrd=none / filler=0 / ip_ratio=1.40 / pb_ratio=1.30 / aq=3:1.00 / aq-sensitivity=10.00 / aq-factor=1.00:1.00:1.00 / aq2=0 / aq3=0
Language                                 : English
Default                                  : Yes
Forced                                   : No

Audio
ID                                       : 2
Format                                   : DTS XLL
Format/Info                              : Digital Theater Systems
Commercial name                          : DTS-HD Master Audio
Codec ID                                 : A_DTS
Duration                                 : 2 h 8 min
Bit rate mode                            : Variable
Bit rate                                 : 3 671 kb/s
Channel(s)                               : 6 channels
Channel layout                           : C L R Ls Rs LFE
Sampling rate                            : 48.0 kHz
Frame rate                               : 93.750 FPS (512 SPF)
Bit depth                                : 24 bits
Compression mode                         : Lossless
Stream size                              : 3.30 GiB (26%)
Language                                 : English
Default                                  : Yes
Forced                                   : No

Text #1
ID                                       : 3
Format                                   : UTF-8
Codec ID                                 : S_TEXT/UTF8
Codec ID/Info                            : UTF-8 Plain Text
Duration                                 : 2 h 3 min
Bit rate                                 : 52 b/s
Count of elements                        : 1521
Stream size                              : 47.2 KiB (0%)
Title                                    : English-SRT
Language                                 : English
Default                                  : Yes
Forced                                   : No

Text #2
ID                                       : 4
Format                                   : PGS
Muxing mode                              : zlib
Codec ID                                 : S_HDMV/PGS
Codec ID/Info                            : Picture based subtitle format used on BDs/HD-DVDs
Duration                                 : 2 h 4 min
Bit rate                                 : 31.0 kb/s
Count of elements                        : 2944
Stream size                              : 27.6 MiB (0%)
Language                                 : Chinese
Default                                  : No
Forced                                   : No

Text #3
ID                                       : 5
Format                                   : PGS
Muxing mode                              : zlib
Codec ID                                 : S_HDMV/PGS
Codec ID/Info                            : Picture based subtitle format used on BDs/HD-DVDs
Duration                                 : 2 h 4 min
Bit rate                                 : 30.8 kb/s
Count of elements                        : 2944
Stream size                              : 27.3 MiB (0%)
Language                                 : Chinese
Default                                  : No
Forced                                   : No

Text #4
ID                                       : 6
Format                                   : PGS
Muxing mode                              : zlib
Codec ID                                 : S_HDMV/PGS
Codec ID/Info                            : Picture based subtitle format used on BDs/HD-DVDs
Duration                                 : 2 h 4 min
Bit rate                                 : 62.5 kb/s
Count of elements                        : 2944
Stream size                              : 55.6 MiB (0%)
Language                                 : Chinese
Default                                  : No
Forced                                   : No

Text #5
ID                                       : 7
Format                                   : PGS
Muxing mode                              : zlib
Codec ID                                 : S_HDMV/PGS
Codec ID/Info                            : Picture based subtitle format used on BDs/HD-DVDs
Duration                                 : 2 h 4 min
Bit rate                                 : 62.2 kb/s
Count of elements                        : 2944
Stream size                              : 55.3 MiB (0%)
Language                                 : Chinese
Default                                  : No
Forced                                   : No

Text #6
ID                                       : 8
Format                                   : PGS
Muxing mode                              : zlib
Codec ID                                 : S_HDMV/PGS
Codec ID/Info                            : Picture based subtitle format used on BDs/HD-DVDs
Duration                                 : 2 h 8 min
Bit rate                                 : 28.5 kb/s
Count of elements                        : 3496
Stream size                              : 26.1 MiB (0%)
Language                                 : English
Default                                  : No
Forced                                   : No

Menu
00:00:00.000                             : en:绗?01 绔?
00:09:04.043                             : en:绗?02 绔?
00:18:27.523                             : en:绗?03 绔?
00:29:29.685                             : en:绗?04 绔?
00:38:26.763                             : en:绗?05 绔?
00:50:16.931                             : en:绗?06 绔?
01:03:48.783                             : en:绗?07 绔?
01:13:14.599                             : en:绗?08 绔?
01:19:01.320                             : en:绗?09 绔?
01:28:29.012                             : en:绗?10 绔?
01:36:48.386                             : en:绗?11 绔?
01:44:53.496                             : en:绗?12 绔?
01:51:35.647                             : en:绗?13 绔?
02:00:25.301                             : en:绗?14 绔?
02:07:17.255                             : en:绗?15 绔?







21f7ba4629c24817b851a617d0f1d789.zip (64.05 KB)

回复

使用道具 举报

百度云电影论坛 ( 辽ICP备17019482号-3 )

本网站所有资源来自网络,如无意中侵犯了您的权益,请发邮件至 [email protected],立即清除相关链接

GMT+8, 2020-10-29 12:16 , Processed in 0.101703 second(s), 22 queries .

Powered by Discuz! X3.2

© 2001-2013 Comsenz Inc.

快速回复 返回顶部 返回列表