百度云电影论坛

 找回密码
 立即注册

The Wild Goose Lake/野鹅塘 The.Wild.Goose.Lake.2019.CHINESE.1080p.BluRay.x...

[复制链接]

百度云电影 发表于 2020-10-17 09:26:29 | 显示全部楼层 |阅读模式
帖子完整标题:The Wild Goose Lake/野鹅塘 The.Wild.Goose.Lake.2019.CHINESE.1080p.BluRay.x264.DTS-HD.MA.5.1-CHD 12.56GB





◎译  名 The Wild Goose Lake / 野鹅塘 / 野鹅湖
◎片  名 南方车站的聚会
◎年  代 2019
◎产  地 中国大陆 / 法国
◎类  别 剧情 / 犯罪
◎语  言 武汉方言
◎上映日期 2019-05-18(戛纳电影节) / 2019-12-06(中国大陆)
◎IMDb评分  6.8/10 from 3408 users
◎片  长 113分钟
◎导  演 刁亦男 Yi'nan Diao
◎编  剧 刁亦男 Yi'nan Diao
◎主  演 胡歌 Ge Hu
       桂纶镁 Lunmei Gwei
       廖凡 Fan Liao
       万茜 Qian Wan
       奇道 Dao Qi
       黄觉 Jue Huang
       曾美慧孜 Meihuizi Zeng
       张奕聪 Yicong Zhang
       陈永忠 Yongzhong Chen
       李志鹏
       刘畅
       常嘉豪
       常嘉壮
       陈子杰
       邱文洋 Wenyang Qiu
       汤青松
       付小仙 Xiaoxian Fu


◎标  签 胡歌 | 犯罪 | 桂纶镁 | 刁亦男 | 值得一看 | 中国大陆 | 廖凡 | 剧情

◎简  介   

  南方某城市,重案队长刘队(廖凡 饰)重金悬赏在逃罪犯周泽农(胡歌 饰)。陪泳女刘爱爱(桂纶镁 饰) 、周泽农曾经的好友华华(奇道 饰)、五年未见的妻子杨淑俊(万茜 饰),各色人等各怀心事,相继被卷入这场罪与罚的追击旋涡。冒险与爱情,人性与救赎,这场特别的“聚会”该如何收场?善恶有道一念之间。
  中国导演刁亦男曾凭借前作《白日焰火》获第 64届柏林国际电影节最佳影片金熊奖,凭本片入围第 72届戛纳国际电影节主竞赛单元。

◎获奖情况  

  第72届戛纳电影节(2019)
  主竞赛单元 金棕榈奖(提名) 刁亦男
Video
ID                                       : 1
Format                                   : AVC
Format/Info                              : Advanced Video Codec
Format settings                          : CABAC / 4 Ref Frames
Format settings, CABAC                   : Yes
Format settings, Reference frames        : 4 frames
Codec ID                                 : V_MPEG4/ISO/AVC
Duration                                 : 1 h 50 min
Bit rate                                 : 12.1 Mb/s
Width                                    : 1 920 pixels
Height                                   : 1 012 pixels
Display aspect ratio                     : 1.897
Frame rate mode                          : Constant
Frame rate                               : 23.976 (24000/1001/189150) FPS
Color space                              : YUV
Chroma subsampling                       : 4:2:0
Bit depth                                : 8 bits
Scan type                                : Progressive
Bits/(Pixel*Frame)                       : 0.259
Stream size                              : 9.35 GiB (74%)
Writing library                          : x264 core 157 r2867+150 7e91e0e t_mod_Custom_2
Encoding settings                        : cabac=1 / ref=4 / deblock=1:-3:-3 / analyse=0x3:0x133 / me=umh / subme=11 / psy=1 / fade_compensate=0.00 / psy_rd=0.90:0.10 / mixed_ref=1 / me_range=64 / chroma_me=1 / trellis=2 / 8x8dct=1 / cqm=0 / deadzone=21,11 / fast_pskip=0 / chroma_qp_offset=-4 / threads=32 / lookahead_threads=5 / sliced_threads=0 / nr=0 / decimate=1 / interlaced=0 / bluray_compat=0 / constrained_intra=0 / fgo=0 / bframes=8 / b_pyramid=2 / b_adapt=2 / b_bias=0 / direct=3 / weightb=1 / open_gop=0 / weightp=2 / keyint=250 / keyint_min=23 / scenecut=40 / intra_refresh=0 / rc_lookahead=60 / rc=crf / mbtree=0 / crf=18.0000 / qcomp=0.70 / qpmin=0:0:0 / qpmax=69:69:69 / qpstep=4 / vbv_maxrate=35000 / vbv_bufsize=35000 / crf_max=0.0 / nal_hrd=none / filler=0 / ip_ratio=1.40 / pb_ratio=1.30 / aq=3:1.00 / aq-sensitivity=10.00 / aq-factor=1.00:1.00:1.00 / aq2=0 / aq3=0
Language                                 : Chinese
Default                                  : Yes
Forced                                   : No

Audio
ID                                       : 2
Format                                   : DTS XLL
Format/Info                              : Digital Theater Systems
Commercial name                          : DTS-HD Master Audio
Codec ID                                 : A_DTS
Duration                                 : 1 h 50 min
Bit rate mode                            : Variable
Bit rate                                 : 4 127 kb/s
Channel(s)                               : 6 channels
Channel layout                           : C L R Ls Rs LFE
Sampling rate                            : 48.0 kHz
Frame rate                               : 93.750 FPS (512 SPF)
Bit depth                                : 24 bits
Compression mode                         : Lossless
Stream size                              : 3.20 GiB (25%)
Language                                 : Chinese
Default                                  : Yes
Forced                                   : No

Text #1
ID                                       : 3
Format                                   : UTF-8
Codec ID                                 : S_TEXT/UTF8
Codec ID/Info                            : UTF-8 Plain Text
Duration                                 : 1 h 42 min
Bit rate                                 : 22 b/s
Count of elements                        : 720
Stream size                              : 17.0 KiB (0%)
Title                                    : English-SRT
Language                                 : English
Default                                  : Yes
Forced                                   : No

Text #2
ID                                       : 4
Format                                   : PGS
Muxing mode                              : zlib
Codec ID                                 : S_HDMV/PGS
Codec ID/Info                            : Picture based subtitle format used on BDs/HD-DVDs
Duration                                 : 1 h 41 min
Bit rate                                 : 16.3 kb/s
Count of elements                        : 1598
Stream size                              : 11.9 MiB (0%)
Title                                    : Chinese-PGS
Language                                 : Chinese
Default                                  : No
Forced                                   : No

Text #3
ID                                       : 5
Format                                   : PGS
Muxing mode                              : zlib
Codec ID                                 : S_HDMV/PGS
Codec ID/Info                            : Picture based subtitle format used on BDs/HD-DVDs
Duration                                 : 1 h 42 min
Bit rate                                 : 19.3 kb/s
Count of elements                        : 1454
Stream size                              : 14.1 MiB (0%)
Title                                    : English-PGS
Language                                 : English
Default                                  : No
Forced                                   : No

Menu
00:00:00.000                             : en:绗?01 绔?
00:07:46.383                             : en:绗?02 绔?
00:19:04.643                             : en:绗?03 绔?
00:28:10.272                             : en:绗?04 绔?
00:40:06.863                             : en:绗?05 绔?
00:49:10.197                             : en:绗?06 绔?
00:58:29.589                             : en:绗?07 绔?
01:06:54.802                             : en:绗?08 绔?
01:16:12.026                             : en:绗?09 绔?
01:24:07.876                             : en:绗?10 绔?
01:32:02.350                             : en:绗?11 绔?
01:48:18.701                             : en:绗?12 绔?





                                                                                                                                                                                                        


2da398ce4bfc6f8c9f3d18607a5758b4.zip (63.52 KB)

回复

使用道具 举报

百度云电影论坛 ( 辽ICP备17019482号-3 )

本网站所有资源来自网络,如无意中侵犯了您的权益,请发邮件至 [email protected],立即清除相关链接

GMT+8, 2020-10-25 18:03 , Processed in 0.096923 second(s), 22 queries .

Powered by Discuz! X3.2

© 2001-2013 Comsenz Inc.

快速回复 返回顶部 返回列表