百度云电影论坛

 找回密码
 立即注册

黑豹 Black.Panther.2018.1080p.BluRay.x264.DTS-HD.MA.7.1-FGT 14.23GB

[复制链接]

百度云电影 发表于 2020-10-17 09:26:12 | 显示全部楼层 |阅读模式
帖子完整标题:黑豹 Black.Panther.2018.1080p.BluRay.x264.DTS-HD.MA.7.1-FGT 14.23GB





◎译  名 黑豹
◎片  名 Black Panther
◎年  代 2018
◎产  地 美国,南非,韩国,澳大利亚
◎类  别 动作 / 科幻 / 冒险
◎语  言 斯瓦希里语,英语,科萨语,韩语
◎上映日期 2018-02-16(美国) / 2018-03-09(中国大陆)
◎片  长 134分钟
◎导  演 瑞恩·库格勒 Ryan Coogler
◎编  剧 瑞恩·库格勒 Ryan Coogler / 乔·罗伯特·科尔 Joe Robert Cole / 斯坦·李 Stan Lee / 杰克·科比 Jack Kirby
◎主  演 查德维克·博斯曼 Chadwick Boseman
       露皮塔·尼永奥 Lupita Nyong'o
       迈克尔·B·乔丹 Michael B. Jordan
       丹娜·奎里拉 Danai Gurira
       马丁·弗瑞曼 Martin Freeman
       丹尼尔·卡卢亚 Daniel Kaluuya
       利蒂希娅·赖特 Letitia Wright
       温斯顿·杜克 Winston Duke
       斯特林·K·布朗 Sterling K. Brown
       安吉拉·贝塞特 Angela Bassett
       福里斯特·惠特克 Forest Whitaker
       安迪·瑟金斯 Andy Serkis
       弗洛伦丝·卡松巴 Florence Kasumba
       约翰·卡尼 John Kani
       大卫·S·李 David S. Lee
       娜比娅·毕 Nabiyah Be
       斯坦·李 Stan Lee
       阿特达万·卡尼 Atandwa Kani
       艾利克斯·希伯特 Alex R. Hibbert
       塞巴斯蒂安·斯坦 Sebastian Stan
       伊丽莎白艾尔金斯 Elizabeth Elkins
       Sasha Morfaw
       班巴德贾恩·班巴 Bambadjan Bamba
       丹泽尔·惠特克 Denzel Whitaker
       西黛尔·诺尔 Sydelle Noel
       丹尼·萨帕尼 Danny Sapani
       伊萨赫·德·班克尔 Isaach De Bankolé
       香奈特·芮妮·威尔逊 Shaunette Renée Wilson

◎标  签 漫威 | 超级英雄 | 科幻 | 美国 | 动作 | 2018 | 漫画改编 | 非洲

◎简  介

  位于非洲的神秘国家瓦坎达,凭借来自宇宙的振金而成为科技极度发达的国家,不过他们长久封闭,始终对外界保守这个秘密。在前国王死于联合国爆炸袭击后,特查拉王子(查德维克·博斯曼 Chadwick Boseman 饰)继任成为新的国王,同时他也是黑豹的继承者。登基之后,特查拉与前女友娜吉雅(露皮塔·尼永奥 Lupita Nyong'o 饰)、贴身侍卫奥姆烨(丹娜·奎里拉 Danai Gurira 饰)追查曾经盗取振金并杀害瓦坎达人的尤利西斯·克劳(安迪·瑟金斯 Andy Serkis 饰)。一番厮杀后,克劳侥幸逃脱,谁知最终死于合伙人艾瑞克·克尔芒戈(迈克尔·B·乔丹 Michael B. Jordan 饰)之手。艾瑞克同样具有瓦坎达血统,而且当年他的父亲死在了自己的兄弟——特查拉父亲的手中。
  
  怀着莫大的仇恨,艾瑞克踏足瓦坎达,去争夺至高无上的王位……

◎获奖情况

  第91届奥斯卡金像奖 ?(2019)
  最佳影片(提名) 凯文·费奇
  最佳混音(提名) 布兰登·普罗克特?/?史蒂夫·博得德克?/?彼得·J·戴夫林
  最佳音效剪辑(提名) 史蒂夫·博得德克?/?本杰明·A·贝尔特
  最佳艺术指导 杰·哈特?/?汉娜·比奇勒
  最佳服装设计 露丝·E·卡特
  最佳原创配乐 路德维格·戈兰松
  最佳原创歌曲(提名) 音浪?/?肯德里克·拉马尔?/?安东尼·蒂菲斯?/?诗莎
  
  第76届金球奖 ?(2019)
  电影类最佳剧情片(提名)
  电影类最佳原创配乐(提名)
  电影类最佳原创歌曲(提名)
  
  第72届英国电影学院奖 ?(2019)
  电影奖最佳特殊视觉效果
  
  第27届MTV电影奖 ?(2018)
  MTV电影奖年度电影
  MTV电影奖最佳表演 查德维克·博斯曼
  MTV电影奖最佳打斗(提名) 查德维克·博斯曼?/?温斯顿·杜克
  MTV电影奖最佳银幕组合(提名) 查德维克·博斯曼?/?利蒂希娅·赖特?/?丹娜·奎里拉?/?露皮塔·尼永奥
  MTV电影奖最佳反派 迈克尔·B·乔丹
  MTV电影奖最佳英雄形象 查德维克·博斯曼
  MTV电影奖最佳抢镜(提名) 利蒂希娅·赖特
  
  第25届美国演员工会奖 ?(2019)
  电影奖最佳群戏
  电影最佳特技群戏
  
  第71届美国编剧工会奖 ?(2019)
  电影奖最佳改编剧本(提名) 瑞恩·库格勒?/?乔·罗伯特·科尔
  
  第30届美国制片人工会奖 ?(2019)
  最佳电影制片人奖(提名)
  
  第23届美国艺术指导工会奖 ?(2019)
  电影奖最佳幻想电影艺术指导 汉娜·比奇勒
  
  第21届美国服装设计工会奖 ?(2019)
  科幻/奇幻题材电影最佳服装设计 露丝·E·卡特
  
  第6届美国化妆及发型设计工会奖 ?(2019)
  电影类最佳年代戏发型设计(提名)
  电影类最佳特效化妆(提名)
  
  第66届美国音效剪辑协会奖 ?(2019)
  金卷轴奖最佳电影音效剪辑(提名)
  金卷轴奖最佳配乐剪辑(提名)
  
  第55届美国声音效果协会奖 ?(2019)
  真人电影最佳音效(提名)
  
  第90届美国国家评论协会奖 ?(2018)
  年度佳片
  
  第24届美国评论家选择电影奖 ?(2019)
  最佳影片(提名)
  最佳男配角(提名) 迈克尔·B·乔丹
  最佳群戏(提名)
  最佳动作片(提名)
  最佳改编剧本(提名) 瑞恩·库格勒?/?乔·罗伯特·科尔
  最佳摄影(提名)
  最佳配乐(提名)
  最佳歌曲(提名)
  最佳美术指导
  最佳服装设计
  最佳发型化妆(提名)
  最佳视觉效果
  
  第19届美国电影学会奖 ?(2018)
  年度佳片
  
  第23届金卫星奖 ?(2019)
  电影部门最佳剧情片(提名)
  电影部门最佳原创歌曲(提名)
  电影部门最佳摄影(提名)
  电影部门最佳视觉效果
  电影部门最佳音效(提名)
  电影部门最佳美术指导(提名)
  电影部门最佳服装设计(提名)
  
  第22届好莱坞电影奖 ?(2018)
  年度电影 瑞恩·库格勒
  年度艺术指导
  
  第17届华盛顿影评人协会奖 ?(2018)
  最佳导演(提名) 瑞恩·库格勒
  最佳男配角(提名) 迈克尔·B·乔丹
  最佳改编剧本(提名) 瑞恩·库格勒?/?乔·罗伯特·科尔
  最佳群戏(提名)
  最佳原创配乐(提名) 路德维格·戈兰松
  最佳艺术指导
  
  第39届伦敦影评人协会奖 ?(2019)
  年度男配角(提名) 迈克尔·B·乔丹
  年度英国/爱尔兰男演员(提名) 丹尼尔·卡卢亚
  
  第44届洛杉矶影评人协会奖 ?(2018)
  最佳艺术指导
  
  第31届芝加哥影评人协会奖 ?(2018)
  最佳男配角(提名) 迈克尔·B·乔丹
  最佳视觉效果(提名)
  最佳艺术指导(提名)
  
  第17届旧金山影评人协会奖 ?(2018)
  最佳男配角 迈克尔·B·乔丹
  最佳改编剧本(提名) 瑞恩·库格勒?/?乔·罗伯特·科尔
  最佳艺术指导
  最佳原创配乐(提名)
  
  第18届凤凰城影评人协会奖 ?(2018)
  最佳视觉效果
  十佳影片
  
  第3届亚特兰大影评人协会奖 ?(2018)
  十佳影片
  
  第22届美国在线影评人协会奖 ?(2019)
  最佳男配角 迈克尔·B·乔丹
  最佳原创配乐(提名)
  最佳服装设计
  
  第5届豆瓣电影年度榜单 ?(2018)
  年度电影原声(提名)
  
  第4届豆瓣电影年度榜单 ?(2017)
  最值得期待的外语电影(提名)
Video
ID                                       : 1
Format                                   : AVC
Format/Info                              : Advanced Video Codec
Format settings                          : CABAC / 5 Ref Frames
Format settings, CABAC                   : Yes
Format settings, ReFrames                : 5 frames
Codec ID                                 : V_MPEG4/ISO/AVC
Duration                                 : 2 h 14 min
Bit rate                                 : 10.1 Mb/s
Width                                    : 1 920 pixels
Height                                   : 808 pixels
Display aspect ratio                     : 2.40:1
Frame rate mode                          : Constant
Frame rate                               : 23.976 (24000/1001/189150) FPS
Color space                              : YUV
Chroma subsampling                       : 4:2:0
Bit depth                                : 8 bits
Scan type                                : Progressive
Bits/(Pixel*Frame)                       : 0.272
Stream size                              : 9.51 GiB (67%)
Title                                    : Black.Panther.2018.1080p.BluRay.x264.DTS-HD.MA.7.1-FGT
Writing library                          : x264 core 155 r2901 7d0ff22
Encoding settings                        : cabac=1 / ref=5 / deblock=1:0:0 / analyse=0x3:0x133 / me=umh / subme=7 / psy=1 / psy_rd=1.00:0.00 / mixed_ref=1 / me_range=16 / chroma_me=1 / trellis=1 / 8x8dct=1 / cqm=0 / deadzone=21,11 / fast_pskip=0 / chroma_qp_offset=-2 / threads=24 / lookahead_threads=4 / sliced_threads=0 / nr=0 / decimate=1 / interlaced=0 / bluray_compat=0 / constrained_intra=0 / bframes=3 / b_pyramid=2 / b_adapt=1 / b_bias=0 / direct=1 / weightb=1 / open_gop=0 / weightp=2 / keyint=250 / keyint_min=23 / scenecut=40 / intra_refresh=0 / rc_lookahead=40 / rc=2pass / mbtree=1 / bitrate=10117 / ratetol=1.0 / qcomp=0.60 / qpmin=0 / qpmax=69 / qpstep=4 / cplxblur=20.0 / qblur=0.5 / ip_ratio=1.40 / aq=1:1.00
Language                                 : English
Default                                  : Yes
Forced                                   : No

Audio
ID                                       : 2
Format                                   : DTS
Format/Info                              : Digital Theater Systems
Format profile                           : MA / Core
Codec ID                                 : A_DTS
Duration                                 : 2 h 14 min
Bit rate mode                            : Variable / Constant
Bit rate                                 : 4 981 kb/s / 1 509 kb/s
Channel(s)                               : 8 channels / 6 channels
Channel positions                        : Front: L C R, Side: L R, Back: L R, LFE / Front: L C R, Side: L R, LFE
Sampling rate                            : 48.0 kHz
Frame rate                               : 93.750 FPS (512 SPF)
Bit depth                                : 24 bits
Compression mode                         : Lossless / Lossy
Stream size                              : 4.68 GiB (33%)
Title                                    : Black.Panther.2018.1080p.BluRay.x264.DTS-HD.MA.7.1-FGT
Language                                 : English
Default                                  : Yes
Forced                                   : No

Text #1
ID                                       : 3
Format                                   : UTF-8
Codec ID                                 : S_TEXT/UTF8
Codec ID/Info                            : UTF-8 Plain Text
Duration                                 : 2 h 10 min
Bit rate                                 : 1 b/s
Count of elements                        : 68
Stream size                              : 1.15 KiB (0%)
Title                                    : English FORCED-SRT
Language                                 : English
Default                                  : Yes
Forced                                   : Yes

Text #2
ID                                       : 4
Format                                   : UTF-8
Codec ID                                 : S_TEXT/UTF8
Codec ID/Info                            : UTF-8 Plain Text
Duration                                 : 2 h 14 min
Bit rate                                 : 48 b/s
Count of elements                        : 1835
Stream size                              : 48.1 KiB (0%)
Title                                    : English-SDH-SRT
Language                                 : English
Default                                  : No
Forced                                   : No

Text #3
ID                                       : 5
Format                                   : PGS
Muxing mode                              : zlib
Codec ID                                 : S_HDMV/PGS
Codec ID/Info                            : Picture based subtitle format used on BDs/HD-DVDs
Duration                                 : 2 h 14 min
Bit rate                                 : 32.6 kb/s
Count of elements                        : 3670
Stream size                              : 31.2 MiB (0%)
Language                                 : English
Default                                  : No
Forced                                   : No

Text #4
ID                                       : 6
Format                                   : PGS
Muxing mode                              : zlib
Codec ID                                 : S_HDMV/PGS
Codec ID/Info                            : Picture based subtitle format used on BDs/HD-DVDs
Duration                                 : 2 h 14 min
Bit rate                                 : 78.7 kb/s
Count of elements                        : 5252
Stream size                              : 75.5 MiB (1%)
Language                                 : English
Default                                  : No
Forced                                   : No

Text #5
ID                                       : 7
Format                                   : PGS
Muxing mode                              : zlib
Codec ID                                 : S_HDMV/PGS
Codec ID/Info                            : Picture based subtitle format used on BDs/HD-DVDs
Duration                                 : 2 h 10 min
Bit rate                                 : 838 b/s
Count of elements                        : 136
Stream size                              : 801 KiB (0%)
Language                                 : English
Default                                  : No
Forced                                   : No





                                                                                                                                                                                                        
                                                                                                                                                                                                                                          
2e223f177ddcd50010c30e2dea14b7aa.zip (72.6 KB)

回复

使用道具 举报

百度云电影论坛 ( 辽ICP备17019482号-3 )

本网站所有资源来自网络,如无意中侵犯了您的权益,请发邮件至 [email protected],立即清除相关链接

GMT+8, 2020-10-29 13:09 , Processed in 0.093246 second(s), 22 queries .

Powered by Discuz! X3.2

© 2001-2013 Comsenz Inc.

快速回复 返回顶部 返回列表