百度云电影论坛

 找回密码
 立即注册

你本应离开/不该在此 You.Should.Have.Left.2020.1080p.BluRay.x264.DTS-...

[复制链接]

百度云电影 发表于 2020-10-17 09:25:55 | 显示全部楼层 |阅读模式
帖子完整标题:你本应离开/不该在此 You.Should.Have.Left.2020.1080p.BluRay.x264.DTS-HD.MA.5.1-FGT 9.79GB





◎译  名 你本应离开/不该在此/你本该离开
◎片  名 You Should Have Left
◎年  代 2020
◎产  地 美国
◎类  别 悬疑 / 恐怖
◎语  言 英语
◎上映日期 2020-06-18(美国)
◎IMDb评分  5.3/10 from 11167 users
◎片  长 93分钟
◎导  演 大卫·凯普 David Koepp
◎编  剧 大卫·凯普 David Koepp / 丹尼尔·凯尔曼 Daniel Kehlmann
◎主  演 阿曼达·塞弗里德 Amanda Seyfried
       凯文·贝肯 Kevin Bacon
       科林·布鲁门奥 Colin Blumenau
       艾芙莉·蒂优·埃塞克斯 Avery Tiiu Essex
       劳瑞·安·理查德斯 Lowri Ann Richards

◎标  签 悬疑 | 惊悚 | 恐怖 | 美国 | 2020 | 美国电影 | 阿曼达·塞弗里德 | 电影

◎简  介

  影片改编自同名小说,讲述一个电影编剧(贝肯饰)带着老婆(塞弗里德饰)、孩子在阿尔卑斯山附近潜心创作,但一些离奇事件却不断发生。
Video
ID                                       : 1
Format                                   : AVC
Format/Info                              : Advanced Video Codec
Format settings                          : CABAC / 4 Ref Frames
Format settings, CABAC                   : Yes
Format settings, Reference frames        : 4 frames
Codec ID                                 : V_MPEG4/ISO/AVC
Duration                                 : 1 h 33 min
Bit rate                                 : 11.5 Mb/s
Width                                    : 1 920 pixels
Height                                   : 1 036 pixels
Display aspect ratio                     : 1.85:1
Frame rate mode                          : Constant
Frame rate                               : 23.976 (24000/1001/189150) FPS
Color space                              : YUV
Chroma subsampling                       : 4:2:0
Bit depth                                : 8 bits
Scan type                                : Progressive
Bits/(Pixel*Frame)                       : 0.241
Stream size                              : 7.48 GiB (76%)
Title                                    : You.Should.Have.Left.2020.1080p.BluRay.x264.DTS-HD.MA.5.1-FGT
Writing library                          : x264 core 148 r2748 97eaef2
Encoding settings                        : cabac=1 / ref=4 / deblock=1:-2:-2 / analyse=0x3:0x113 / me=umh / subme=9 / psy=1 / psy_rd=1.00:0.15 / mixed_ref=1 / me_range=16 / chroma_me=1 / trellis=2 / 8x8dct=1 / cqm=0 / deadzone=21,11 / fast_pskip=1 / chroma_qp_offset=-3 / threads=24 / lookahead_threads=3 / sliced_threads=0 / nr=0 / decimate=1 / interlaced=0 / bluray_compat=0 / constrained_intra=0 / bframes=3 / b_pyramid=2 / b_adapt=1 / b_bias=0 / direct=3 / weightb=1 / open_gop=0 / weightp=2 / keyint=250 / keyint_min=25 / scenecut=40 / intra_refresh=0 / rc_lookahead=50 / rc=2pass / mbtree=1 / bitrate=11500 / ratetol=1.0 / qcomp=0.60 / qpmin=0 / qpmax=69 / qpstep=4 / cplxblur=20.0 / qblur=0.5 / vbv_maxrate=31250 / vbv_bufsize=31250 / nal_hrd=none / filler=0 / ip_ratio=1.40 / aq=1:1.00
Default                                  : Yes
Forced                                   : No

Audio
ID                                       : 2
Format                                   : DTS XLL
Format/Info                              : Digital Theater Systems
Commercial name                          : DTS-HD Master Audio
Codec ID                                 : A_DTS
Duration                                 : 1 h 33 min
Bit rate mode                            : Variable
Bit rate                                 : 3 463 kb/s
Channel(s)                               : 6 channels
Channel layout                           : C L R Ls Rs LFE
Sampling rate                            : 48.0 kHz
Frame rate                               : 93.750 FPS (512 SPF)
Bit depth                                : 24 bits
Compression mode                         : Lossless
Stream size                              : 2.26 GiB (23%)
Title                                    : You.Should.Have.Left.2020.1080p.BluRay.x264.DTS-HD.MA.5.1-FGT
Language                                 : English
Default                                  : Yes
Forced                                   : No

Text #1
ID                                       : 3
Format                                   : UTF-8
Codec ID                                 : S_TEXT/UTF8
Codec ID/Info                            : UTF-8 Plain Text
Duration                                 : 1 h 32 min
Bit rate                                 : 42 b/s
Count of elements                        : 1240
Stream size                              : 28.6 KiB (0%)
Title                                    : English-SRT
Language                                 : English
Default                                  : Yes
Forced                                   : No

Text #2
ID                                       : 4
Format                                   : PGS
Muxing mode                              : zlib
Codec ID                                 : S_HDMV/PGS
Codec ID/Info                            : Picture based subtitle format used on BDs/HD-DVDs
Duration                                 : 1 h 29 min
Bit rate                                 : 33.8 kb/s
Count of elements                        : 2390
Stream size                              : 21.6 MiB (0%)
Title                                    : English-PGS
Language                                 : English
Default                                  : No
Forced                                   : No

Text #3
ID                                       : 5
Format                                   : PGS
Muxing mode                              : zlib
Codec ID                                 : S_HDMV/PGS
Codec ID/Info                            : Picture based subtitle format used on BDs/HD-DVDs
Duration                                 : 1 h 31 min
Bit rate                                 : 18.2 kb/s
Count of elements                        : 2156
Stream size                              : 11.9 MiB (0%)
Title                                    : Japanese-PGS
Language                                 : Japanese
Default                                  : No
Forced                                   : No

Text #4
ID                                       : 6
Format                                   : PGS
Muxing mode                              : zlib
Codec ID                                 : S_HDMV/PGS
Codec ID/Info                            : Picture based subtitle format used on BDs/HD-DVDs
Duration                                 : 1 h 31 min
Bit rate                                 : 27.2 kb/s
Count of elements                        : 2002
Stream size                              : 17.7 MiB (0%)
Title                                    : French-PGS
Language                                 : French
Default                                  : No
Forced                                   : No

Text #5
ID                                       : 7
Format                                   : PGS
Muxing mode                              : zlib
Codec ID                                 : S_HDMV/PGS
Codec ID/Info                            : Picture based subtitle format used on BDs/HD-DVDs
Duration                                 : 1 h 31 min
Bit rate                                 : 26.3 kb/s
Count of elements                        : 1848
Stream size                              : 17.1 MiB (0%)
Title                                    : German-PGS
Language                                 : German
Default                                  : No
Forced                                   : No

Text #6
ID                                       : 8
Format                                   : PGS
Muxing mode                              : zlib
Codec ID                                 : S_HDMV/PGS
Codec ID/Info                            : Picture based subtitle format used on BDs/HD-DVDs
Duration                                 : 1 h 31 min
Bit rate                                 : 23.8 kb/s
Count of elements                        : 1768
Stream size                              : 15.5 MiB (0%)
Title                                    : Dutch-PGS
Language                                 : Dutch
Default                                  : No
Forced                                   : No

Menu
00:00:00.000                             : en:Chapter 01
00:04:48.579                             : en:Chapter 02
00:07:12.056                             : en:Chapter 03
00:12:00.886                             : en:Chapter 04
00:17:07.776                             : en:Chapter 05
00:23:32.577                             : en:Chapter 06
00:28:58.611                             : en:Chapter 07
00:32:40.917                             : en:Chapter 08
00:39:53.766                             : en:Chapter 09
00:44:55.901                             : en:Chapter 10
00:47:13.914                             : en:Chapter 11
00:49:41.687                             : en:Chapter 12
00:54:14.542                             : en:Chapter 13
01:00:14.235                             : en:Chapter 14
01:04:02.630                             : en:Chapter 15
01:08:27.228                             : en:Chapter 16
01:13:05.297                             : en:Chapter 17
01:18:15.357                             : en:Chapter 18
01:24:11.337                             : en:Chapter 19
01:27:47.971                             : en:Chapter 20





                                                                                                                                                                                                        


7a048bd6d8a36f901d5f664e5b49384c.zip (50.42 KB)

回复

使用道具 举报

百度云电影论坛 ( 辽ICP备17019482号-3 )

本网站所有资源来自网络,如无意中侵犯了您的权益,请发邮件至 [email protected],立即清除相关链接

GMT+8, 2020-10-29 04:27 , Processed in 0.110072 second(s), 22 queries .

Powered by Discuz! X3.2

© 2001-2013 Comsenz Inc.

快速回复 返回顶部 返回列表