百度云电影论坛

 找回密码
 立即注册

完美家庭 There.Is.No.Place.Like.Home.2018.1080p.BluRay.x264-USURY 7.67GB

[复制链接]

百度云电影 发表于 2020-10-16 07:28:33 | 显示全部楼层 |阅读模式
帖子完整标题:完美家庭 There.Is.No.Place.Like.Home.2018.1080p.BluRay.x264-USURY 7.67GB





◎译  名 完美家庭 / There Is No Place Like Home / 在家千日好
◎片  名 A casa tutti bene
◎年  代 2018
◎产  地 意大利
◎类  别 剧情 / 喜剧 / 爱情
◎语  言 意大利语
◎上映日期 2018-02-14(意大利)
◎IMDb评分  5.9/10 from 2180 users
◎片  长 105分钟
◎导  演 加布里埃莱·穆奇诺 Gabriele Muccino
◎编  剧 加布里埃莱·穆奇诺 Gabriele Muccino / 保罗·科斯特拉 Paolo Costella / 萨布里娜·因帕恰托雷 Sabrina Impacciatore
◎主  演 斯蒂芬努·阿科西 Stefano Accorsi
       卡罗利娜·克雷申蒂尼 Carolina Crescentini
       埃琳娜·库奇 Elena Cucci
       皮耶尔弗兰切斯科·法维诺 Pierfrancesco Favino
       克劳迪亚·杰里尼 Claudia Gerini
       马西莫·吉尼 Massimo Ghini
       萨布里娜·因帕恰托雷 Sabrina Impacciatore
       桑德拉·米洛 Sandra Milo
       斯特法尼娅·桑德雷利 Stefania Sandrelli
       瓦莱丽亚·索拉里诺 Valeria Solarino
       吉安马可·托格纳奇 Gianmarco Tognazzi
       蒂亚·法蔻 Tea Falco


◎标  签 意大利 | 家庭 | 剧情 | 2018 | 爱情 | 生活 | 喜剧 | 亲情

◎简  介   

  「俗话说家是一个人的起点,我们逃离家庭,尔后又回归其怀抱。」
  拥有近20人的巨大家族齐聚到小岛上,为了庆祝爷爷奶奶的50周年金婚!在美丽的小岛上大家狂欢打闹、高歌,如同童年时无忧无虑相处。
  然而正当派对过后大家要各自回家之际,一场突如其来的风浪打乱了所有船隻班次,所有人被迫受困在小岛上,久未长时间相处的大家,突然间得挤在同个屋簷下共度两天两夜。
  当怀孕的妻子遇上前妻、青梅竹马在分隔多年后再次碰头,所有兄弟姐妹表哥表姊长年来的回忆与不堪,让屋子裡的暗潮汹涌即将大过海上的风浪。

◎获奖情况  

  第64届意大利大卫奖(2019)
  最佳男配角(提名) 马西莫·吉尼
  最佳音乐(提名)
  最佳原创歌曲(提名)
Video
ID                                       : 1
Format                                   : AVC
Format/Info                              : Advanced Video Codec
Format settings                          : CABAC / 5 Ref Frames
Format settings, CABAC                   : Yes
Format settings, Reference frames        : 5 frames
Codec ID                                 : V_MPEG4/ISO/AVC
Duration                                 : 1 h 47 min
Bit rate                                 : 8 682 kb/s
Width                                    : 1 920 pixels
Height                                   : 808 pixels
Display aspect ratio                     : 2.40:1
Frame rate mode                          : Constant
Frame rate                               : 24.000 FPS
Color space                              : YUV
Chroma subsampling                       : 4:2:0
Bit depth                                : 8 bits
Scan type                                : Progressive
Bits/(Pixel*Frame)                       : 0.233
Stream size                              : 6.52 GiB (85%)
Writing library                          : x264 core 157 r2969 d4099dd
Encoding settings                        : cabac=1 / ref=5 / deblock=1:-3:-3 / analyse=0x3:0x133 / me=umh / subme=9 / psy=1 / psy_rd=1.00:0.00 / mixed_ref=1 / me_range=16 / chroma_me=1 / trellis=2 / 8x8dct=1 / cqm=0 / deadzone=21,11 / fast_pskip=0 / chroma_qp_offset=-2 / threads=18 / lookahead_threads=1 / sliced_threads=0 / nr=0 / decimate=1 / interlaced=0 / bluray_compat=0 / constrained_intra=0 / bframes=3 / b_pyramid=2 / b_adapt=1 / b_bias=0 / direct=3 / weightb=1 / open_gop=0 / weightp=2 / keyint=240 / keyint_min=24 / scenecut=40 / intra_refresh=0 / rc_lookahead=50 / rc=2pass / mbtree=1 / bitrate=8682 / ratetol=1.0 / qcomp=0.60 / qpmin=0 / qpmax=69 / qpstep=4 / cplxblur=20.0 / qblur=0.5 / ip_ratio=1.40 / aq=1:1.00
Language                                 : English
Default                                  : Yes
Forced                                   : No

Audio
ID                                       : 2
Format                                   : DTS
Format/Info                              : Digital Theater Systems
Codec ID                                 : A_DTS
Duration                                 : 1 h 47 min
Bit rate mode                            : Constant
Bit rate                                 : 1 509 kb/s
Channel(s)                               : 6 channels
Channel layout                           : C L R Ls Rs LFE
Sampling rate                            : 48.0 kHz
Frame rate                               : 93.750 FPS (512 SPF)
Bit depth                                : 24 bits
Compression mode                         : Lossy
Stream size                              : 1.13 GiB (15%)
Language                                 : Italian
Default                                  : Yes
Forced                                   : No

Text
ID                                       : 3
Format                                   : UTF-8
Codec ID                                 : S_TEXT/UTF8
Codec ID/Info                            : UTF-8 Plain Text
Duration                                 : 1 h 40 min
Bit rate                                 : 53 b/s
Count of elements                        : 1489
Stream size                              : 39.6 KiB (0%)
Title                                    : English
Language                                 : English
Default                                  : Yes
Forced                                   : Yes

Menu
00:00:00.000                             : en:00:00:00.000
00:08:39.708                             : en:00:08:39.708
00:15:52.042                             : en:00:15:52.042
00:23:34.042                             : en:00:23:34.042
00:29:47.958                             : en:00:29:47.958
00:39:17.875                             : en:00:39:17.875
00:52:22.000                             : en:00:52:22.000
01:05:59.792                             : en:01:05:59.792
01:16:20.042                             : en:01:16:20.042
01:25:39.208                             : en:01:25:39.208
01:33:59.625                             : en:01:33:59.625
01:42:42.542                             : en:01:42:42.542







be5d16aa7241ca031f20ee949a02a98b.zip (39.57 KB)

回复

使用道具 举报

百度云电影论坛 ( 辽ICP备17019482号-3 )

本网站所有资源来自网络,如无意中侵犯了您的权益,请发邮件至 [email protected],立即清除相关链接

GMT+8, 2020-10-29 13:15 , Processed in 0.103947 second(s), 22 queries .

Powered by Discuz! X3.2

© 2001-2013 Comsenz Inc.

快速回复 返回顶部 返回列表