百度云电影论坛

 找回密码
 立即注册

黑车玄疑 Black.Test.Car.1962.720p.BluRay.x264-BiPOLAR 4.25GB

[复制链接]

百度云电影 发表于 2020-10-15 07:24:48 | 显示全部楼层 |阅读模式
帖子完整标题:黑车玄疑 Black.Test.Car.1962.720p.BluRay.x264-BiPOLAR 4.25GB





◎译  名 黑车玄疑/The Black Test Car/黑色试走车
◎片  名 黒の試走車
◎年  代 1962
◎产  地 日本
◎类  别 剧情 / 悬疑 / 犯罪
◎语  言 日语
◎上映日期 1962-07-01(日本)
◎IMDb评分  7/10 from 296 users
◎片  长 95分钟
◎导  演 增村保造 Yasuzo Masumura
◎编  剧 舟桥和郎 Kazuro Funabashi / 梶山季之 Sueyuki Kajiyama
◎主  演 田宫二郎 Jiro Tamiya
       叶顺子 Junko Kano
       船越英二 Eiji Funakoshi
       高松英郎 Hideo Takamatsu
       菅井一郎 Ichir? Sugai
       上田吉二郎 Kichijir? Ueda
       小野道子 Michiko Ono

◎标  签 日本 | 增村保造 | 日本电影 | 悬疑 | 犯罪 | 1962 | 増村保造 | 1960s

◎简  介

  Two car manufacturers spy on each other to try to find out details and prices of a new sports car each is about to launch.
Video
ID                                       : 1
Format                                   : AVC
Format/Info                              : Advanced Video Codec
Format settings                          : CABAC / 12 Ref Frames
Format settings, CABAC                   : Yes
Format settings, Reference frames        : 12 frames
Codec ID                                 : V_MPEG4/ISO/AVC
Duration                                 : 1 h 34 min
Bit rate                                 : 5 877 kb/s
Width                                    : 1 280 pixels
Height                                   : 544 pixels
Display aspect ratio                     : 2.35:1
Frame rate mode                          : Constant
Frame rate                               : 23.976 (24000/1001/189150) FPS
Color space                              : YUV
Chroma subsampling                       : 4:2:0
Bit depth                                : 8 bits
Scan type                                : Progressive
Bits/(Pixel*Frame)                       : 0.352
Stream size                              : 3.88 GiB (91%)
Writing library                          : x264 core 161 r3018 db0d417
Encoding settings                        : cabac=1 / ref=12 / deblock=1:-3:-3 / analyse=0x3:0x133 / me=umh / subme=10 / psy=1 / psy_rd=1.00:0.15 / mixed_ref=1 / me_range=24 / chroma_me=1 / trellis=2 / 8x8dct=1 / cqm=0 / deadzone=21,11 / fast_pskip=1 / chroma_qp_offset=-3 / threads=17 / lookahead_threads=2 / sliced_threads=0 / nr=0 / decimate=1 / interlaced=0 / bluray_compat=0 / constrained_intra=0 / bframes=8 / b_pyramid=2 / b_adapt=2 / b_bias=0 / direct=3 / weightb=1 / open_gop=0 / weightp=2 / keyint=250 / keyint_min=23 / scenecut=40 / intra_refresh=0 / rc_lookahead=60 / rc=crf / mbtree=1 / crf=17.0 / qcomp=0.60 / qpmin=0 / qpmax=69 / qpstep=4 / ip_ratio=1.40 / aq=3:0.50
Language                                 : English
Default                                  : Yes
Forced                                   : No
Color range                              : Limited
Matrix coefficients                      : BT.709

Audio
ID                                       : 2
Format                                   : FLAC
Format/Info                              : Free Lossless Audio Codec
Codec ID                                 : A_FLAC
Duration                                 : 1 h 34 min
Bit rate mode                            : Variable
Bit rate                                 : 540 kb/s
Channel(s)                               : 1 channel
Channel layout                           : C
Sampling rate                            : 48.0 kHz
Frame rate                               : 11.719 FPS (4096 SPF)
Bit depth                                : 24 bits
Compression mode                         : Lossless
Stream size                              : 365 MiB (8%)
Writing library                          : libFLAC 1.2.1 (UTC 2007-09-17)
Language                                 : Japanese
Default                                  : Yes
Forced                                   : No

Text #1
ID                                       : 3
Format                                   : UTF-8
Codec ID                                 : S_TEXT/UTF8
Codec ID/Info                            : UTF-8 Plain Text
Duration                                 : 1 h 34 min
Bit rate                                 : 56 b/s
Count of elements                        : 1076
Stream size                              : 38.9 KiB (0%)
Title                                    : English
Language                                 : English
Default                                  : Yes
Forced                                   : Yes

Text #2
ID                                       : 4
Format                                   : PGS
Muxing mode                              : zlib
Codec ID                                 : S_HDMV/PGS
Codec ID/Info                            : Picture based subtitle format used on BDs/HD-DVDs
Duration                                 : 1 h 34 min
Bit rate                                 : 9 222 b/s
Count of elements                        : 2152
Stream size                              : 6.23 MiB (0%)
Title                                    : English
Language                                 : English
Default                                  : No
Forced                                   : No

Menu
00:00:00.000                             : en:00:00:00.000
00:07:50.845                             : en:00:07:50.845
00:15:02.902                             : en:00:15:02.902
00:25:00.582                             : en:00:25:00.582
00:30:35.000                             : en:00:30:35.000
00:39:31.828                             : en:00:39:31.828
00:50:12.968                             : en:00:50:12.968
00:56:24.798                             : en:00:56:24.798
01:02:18.068                             : en:01:02:18.068
01:08:58.676                             : en:01:08:58.676
01:17:14.004                             : en:01:17:14.004
01:25:35.672                             : en:01:25:35.672





                                                                                                                                                                                                        
                                                                                                                                                                                                                                          
a1abbeb3a7f4056146323e070502c5b9.zip (43.17 KB)

回复

使用道具 举报

百度云电影论坛 ( 辽ICP备17019482号-3 )

本网站所有资源来自网络,如无意中侵犯了您的权益,请发邮件至 [email protected],立即清除相关链接

GMT+8, 2020-10-29 04:49 , Processed in 0.101782 second(s), 22 queries .

Powered by Discuz! X3.2

© 2001-2013 Comsenz Inc.

快速回复 返回顶部 返回列表