百度云电影论坛

 找回密码
 立即注册

流星侠 The.Meteor.Man.1993.RERiP.720p.BluRay.x264-GUACAMOLE 3.93GB

[复制链接]

百度云电影 发表于 2020-10-14 09:17:34 | 显示全部楼层 |阅读模式
帖子完整标题:流星侠 The.Meteor.Man.1993.RERiP.720p.BluRay.x264-GUACAMOLE 3.93GB





◎译  名 流星侠
◎片  名 The Meteor Man
◎年  代 1993
◎产  地 美国
◎类  别 喜剧 / 科幻 / 奇幻
◎语  言 英语
◎上映日期 1993-08-06
◎IMDb评分  5.2/10 from 7630 users
◎片  长 100 分钟
◎导  演 罗伯特·汤森德 Robert Townsend
◎编  剧 罗伯特·汤森德 Robert Townsend
◎主  演 罗伯特·汤森德 Robert Townsend
       玛拉·吉布斯 Marla Gibbs
       艾迪·格里芬 Eddie Griffin
       Stu Gilliam
       Biz Markie
       比尔·考斯比 Bill Cosby
       Mark Norris
       Jerome Ro Brooks
       William Shipman
       汤米·利斯特 Tommy 'Tiny' Lister
       Luther Vandross
       唐·钱德尔 Don Cheadle
       莱拉·罗琼 Lela Rochon
       Sinbad
       华莱士·肖恩 Wallace Shawn
       罗伯特·吉尔劳姆 Robert Guillaume
       费松·拉夫 Faizon Love
       詹姆斯·厄尔·琼斯 James Earl Jones
       詹妮弗·路易斯 Jenifer Lewis
       Roy Fegan
       斯蒂芬妮·威廉姆斯 Stephanie Williams
       约翰·威瑟斯朋 John Witherspoon
       Cynthia Belgrave
       Vin Rock
       南希·威尔逊 Nancy Wilson
       夏莱恩·伍德尔德 Charlayne Woodard
       Senen Reyes
       Don Reed
       Christopher Sellers
       David 'Lil Dave' Shelton
       Larry Muggerud
       LaWanda Page
       Barbara Montgomery
       Big Daddy Kane
       Clayton LeBouef
       贝弗莉·约翰逊 Beverly Johnson
       汤米·雷德蒙德·希克斯 Tommy Redmond Hicks
       DJ Kay Gee
       B-Real
       安东尼·特雷奇·克里斯 Anthony 'Treach' Criss
       弗兰克·乔辛 Frank Gorshin

◎标  签 喜剧 | 科幻 | 美国 | 黑人電影 | 超级英雄 | 超能力 | 超級英雄 | 漫画改编

◎简  介

  一天晚上杰夫逊·里德被一块力量无穷的流星击中胸膛。这样一来,他就能飞行,能够在一刻钟左右掌握任何一本书中的全部内容,不过不幸的是他有恐高症。此刻他的朋友和家庭都指望他能够保护他们的社区免被可怕的“金贵”破坏。
Video
ID                                       : 1
Format                                   : AVC
Format/Info                              : Advanced Video Codec
Format settings                          : CABAC / 8 Ref Frames
Format settings, CABAC                   : Yes
Format settings, Reference frames        : 8 frames
Codec ID                                 : V_MPEG4/ISO/AVC
Duration                                 : 1 h 39 min
Bit rate                                 : 5 187 kb/s
Width                                    : 1 280 pixels
Height                                   : 692 pixels
Display aspect ratio                     : 1.85:1
Frame rate mode                          : Constant
Frame rate                               : 23.976 (24000/1001/189150) FPS
Color space                              : YUV
Chroma subsampling                       : 4:2:0
Bit depth                                : 8 bits
Scan type                                : Progressive
Bits/(Pixel*Frame)                       : 0.244
Stream size                              : 3.61 GiB (92%)
Writing library                          : x264 core 161 r3018 db0d417
Encoding settings                        : cabac=1 / ref=8 / deblock=1:-3:-3 / analyse=0x3:0x133 / me=umh / subme=9 / psy=1 / psy_rd=1.00:0.00 / mixed_ref=1 / me_range=16 / chroma_me=1 / trellis=2 / 8x8dct=1 / cqm=0 / deadzone=21,11 / fast_pskip=0 / chroma_qp_offset=-2 / threads=22 / lookahead_threads=1 / sliced_threads=0 / nr=0 / decimate=1 / interlaced=0 / bluray_compat=0 / constrained_intra=0 / bframes=3 / b_pyramid=2 / b_adapt=2 / b_bias=0 / direct=3 / weightb=1 / open_gop=0 / weightp=2 / keyint=250 / keyint_min=23 / scenecut=40 / intra_refresh=0 / rc_lookahead=60 / rc=crf / mbtree=1 / crf=18.0 / qcomp=0.60 / qpmin=0 / qpmax=69 / qpstep=4 / ip_ratio=1.40 / aq=3:0.70
Default                                  : Yes
Forced                                   : No
Color range                              : Limited
Color primaries                          : BT.709
Transfer characteristics                 : BT.709
Matrix coefficients                      : BT.709

Audio
ID                                       : 2
Format                                   : AC-3
Format/Info                              : Audio Coding 3
Commercial name                          : Dolby Digital
Codec ID                                 : A_AC3
Duration                                 : 1 h 39 min
Bit rate mode                            : Constant
Bit rate                                 : 448 kb/s
Channel(s)                               : 6 channels
Channel layout                           : L R C LFE Ls Rs
Sampling rate                            : 48.0 kHz
Frame rate                               : 31.250 FPS (1536 SPF)
Compression mode                         : Lossy
Stream size                              : 320 MiB (8%)
Language                                 : English
Service kind                             : Complete Main
Default                                  : Yes
Forced                                   : No

Menu
00:00:00.000                             : en:00:00:00.000
00:11:56.507                             : en:00:11:56.507
00:24:09.782                             : en:00:24:09.782
00:32:55.724                             : en:00:32:55.724
00:50:00.664                             : en:00:50:00.664
01:00:48.436                             : en:01:00:48.436
01:12:50.449                             : en:01:12:50.449
01:23:34.176                             : en:01:23:34.176
01:34:32.333                             : en:01:34:32.333





                                                                                                                                                                                                        


11a9c0fbcaa6ff8efe1db31c446d26b2.zip (39.99 KB)

回复

使用道具 举报

百度云电影论坛 ( 辽ICP备17019482号-3 )

本网站所有资源来自网络,如无意中侵犯了您的权益,请发邮件至 [email protected],立即清除相关链接

GMT+8, 2020-10-23 01:11 , Processed in 0.096691 second(s), 22 queries .

Powered by Discuz! X3.2

© 2001-2013 Comsenz Inc.

快速回复 返回顶部 返回列表