百度云电影论坛

 找回密码
 立即注册

茶之味 The.Taste.of.Tea.2004.720p.BluRay.x264-USURY 7.08GB

[复制链接]

百度云电影 发表于 2020-10-12 10:49:56 | 显示全部楼层 |阅读模式

帖子完整标题:茶之味 The.Taste.of.Tea.2004.720p.BluRay.x264-USURY 7.08GB





◎译  名 茶之味/The Taste of Tea/绿茶之香
◎片  名 茶の味
◎年  代 2004
◎产  地 日本
◎类  别 剧情 / 喜剧
◎语  言 日语
◎上映日期 2004-07-17
◎IMDb评分  7.7/10 from 5708 users
◎片  长 143分钟
◎导  演 石井克人 Katsuhito Ishii
◎编  剧 石井克人 Katsuhito Ishii
◎主  演 浅野忠信 Tadanobu Asano
       坂野真弥 Maya Banno
       佐藤贵广 Takahiro Sato
       手塚理美 Satomi Tezuka
       我修院达也 Tatsuya Gash?in
       三浦友和 Tomokazu Miura
       高桥一生 Issey Takahashi
       土屋安娜 Anna Tsuchiya
       中岛朋子 Tomoko Nakajima
       武田真治 Shinji Takeda
       加濑亮 Ryo Kase
       志贺广太郎 Kotaro Shiga
       森冈龙 Ry? Morioka
       堀部圭亮 Keisuke Horibe
       庵野秀明 Hideaki Anno
       尾野真千子 Machiko Ono
       草彅刚 Tsuyoshi Kusanagi
       菊地凛子 Rinko Kikuchi
       水桥研二 Kenji Mizuhashi
       相武纱季 Saki Aibu
       田中要次 Y?ji Tanaka
       冈田义德 Yoshinori Okada
       野村佑香 Y?ka Nomura
       森下能幸 Yoshiyuki Morishita
       和久井映见 Emi Wakui
       寺岛进 Susumu Terajima

◎标  签 日本 | 日本电影 | 浅野忠信 | 茶の味 | 石井克人 | 文艺 | 土屋安娜 | 2004

◎简  介

  春野一家人住在宁静祥和的小山村,他们的生活恬淡幸福,不过家族成员却各有各的烦恼。祖父(我修院達也 饰)性格古怪,行为乖张,醉心于私动画的制作;父亲(三浦友和 饰)是一位驻家催眠治疗师,他专心工作,无暇他顾;妻子美子(手塚理美 饰)总算暂时从育子的繁忙生活中解脱出来,于是决定重拾餐桌卡的绘画工作。夫妻俩鲜少交流,隔阂暗生;就读中学的长子阿一(佐藤貴広 饰)恋上新来的转校生,他徘徊犹豫,始终不敢表达;刚上小学的女儿幸子(坂野真弥 饰)总以为自己的头颅在不断变大,这个奇怪的幻想让她倍感困扰。
  
  吊儿郎当的叔叔(浅野忠信 饰)从东京回来,为这个平凡却又有些奇怪的家庭吹进一丝生气……
Video
ID                                       : 1
Format                                   : AVC
Format/Info                              : Advanced Video Codec
Format settings                          : CABAC / 9 Ref Frames
Format settings, CABAC                   : Yes
Format settings, Reference frames        : 9 frames
Codec ID                                 : V_MPEG4/ISO/AVC
Duration                                 : 2 h 23 min
Bit rate                                 : 6 408 kb/s
Width                                    : 1 190 pixels
Height                                   : 720 pixels
Display aspect ratio                     : 5:3
Frame rate mode                          : Constant
Frame rate                               : 23.976 (24000/1001/189150) FPS
Color space                              : YUV
Chroma subsampling                       : 4:2:0
Bit depth                                : 8 bits
Scan type                                : Progressive
Bits/(Pixel*Frame)                       : 0.312
Stream size                              : 6.42 GiB (91%)
Writing library                          : x264 core 161 r3018 db0d417
Encoding settings                        : cabac=1 / ref=9 / deblock=1:-3:-3 / analyse=0x3:0x133 / me=umh / subme=10 / psy=1 / psy_rd=1.00:0.15 / mixed_ref=1 / me_range=24 / chroma_me=1 / trellis=2 / 8x8dct=1 / cqm=0 / deadzone=21,11 / fast_pskip=1 / chroma_qp_offset=-3 / threads=18 / lookahead_threads=3 / sliced_threads=0 / nr=0 / decimate=1 / interlaced=0 / bluray_compat=0 / constrained_intra=0 / bframes=8 / b_pyramid=2 / b_adapt=2 / b_bias=0 / direct=3 / weightb=1 / open_gop=0 / weightp=2 / keyint=250 / keyint_min=23 / scenecut=40 / intra_refresh=0 / rc_lookahead=60 / rc=crf / mbtree=1 / crf=17.0 / qcomp=0.60 / qpmin=0 / qpmax=69 / qpstep=4 / ip_ratio=1.40 / aq=3:0.50
Language                                 : English
Default                                  : Yes
Forced                                   : No
Color range                              : Limited
Matrix coefficients                      : BT.709

Audio
ID                                       : 2
Format                                   : AC-3
Format/Info                              : Audio Coding 3
Commercial name                          : Dolby Digital
Codec ID                                 : A_AC3
Duration                                 : 2 h 23 min
Bit rate mode                            : Constant
Bit rate                                 : 640 kb/s
Channel(s)                               : 6 channels
Channel layout                           : L R C LFE Ls Rs
Sampling rate                            : 48.0 kHz
Frame rate                               : 31.250 FPS (1536 SPF)
Compression mode                         : Lossy
Stream size                              : 657 MiB (9%)
Language                                 : Japanese
Service kind                             : Complete Main
Default                                  : Yes
Forced                                   : No

Text #1
ID                                       : 3
Format                                   : UTF-8
Codec ID                                 : S_TEXT/UTF8
Codec ID/Info                            : UTF-8 Plain Text
Duration                                 : 2 h 20 min
Bit rate                                 : 28 b/s
Count of elements                        : 1182
Stream size                              : 29.4 KiB (0%)
Title                                    : English
Language                                 : English
Default                                  : Yes
Forced                                   : Yes

Text #2
ID                                       : 4
Format                                   : PGS
Muxing mode                              : zlib
Codec ID                                 : S_HDMV/PGS
Codec ID/Info                            : Picture based subtitle format used on BDs/HD-DVDs
Duration                                 : 2 h 20 min
Bit rate                                 : 16.4 kb/s
Count of elements                        : 2286
Stream size                              : 16.5 MiB (0%)
Title                                    : English
Language                                 : English
Default                                  : No
Forced                                   : No

Menu
00:00:00.000                             : en:00:00:00.000
00:04:53.627                             : en:00:04:53.627
00:09:43.208                             : en:00:09:43.208
00:19:57.696                             : en:00:19:57.696
00:23:13.726                             : en:00:23:13.726
00:28:16.403                             : en:00:28:16.403
00:35:01.725                             : en:00:35:01.725
00:41:51.342                             : en:00:41:51.342
00:47:59.293                             : en:00:47:59.293
00:54:04.783                             : en:00:54:04.783
00:59:27.647                             : en:00:59:27.647
01:05:45.483                             : en:01:05:45.483
01:17:49.874                             : en:01:17:49.874
01:33:49.582                             : en:01:33:49.582
01:42:17.506                             : en:01:42:17.506
01:50:52.020                             : en:01:50:52.020
01:56:59.721                             : en:01:56:59.721
02:03:49.339                             : en:02:03:49.339
02:10:36.537                             : en:02:10:36.537
02:16:54.164                             : en:02:16:54.164





                                                                                                                                                                                                        
                                                                                                                                                                                                                                                  
c0f04f085189debca9eceaf8125077b0.zip (36.89 KB)

回复

使用道具 举报

百度云电影论坛 ( 辽ICP备17019482号-3 )

本网站所有资源来自网络,如无意中侵犯了您的权益,请发邮件至 [email protected],立即清除相关链接

GMT+8, 2020-10-29 04:42 , Processed in 0.098862 second(s), 22 queries .

Powered by Discuz! X3.2

© 2001-2013 Comsenz Inc.

快速回复 返回顶部 返回列表