百度云电影论坛

 找回密码
 立即注册

预制板公寓 Prefabricated.Houses.1960.720p.BluRay.x264-BiPOLAR 450.23MB

[复制链接]

百度云电影 发表于 2020-10-12 10:39:21 | 显示全部楼层 |阅读模式

帖子完整标题:预制板公寓 Prefabricated.Houses.1960.720p.BluRay.x264-BiPOLAR 450.23MB





◎译  名 预制板公寓/Prefabricated Houses
◎片  名 Domy z panel?
◎年  代 1960
◎产  地 捷克斯洛伐克
◎类  别 纪录片 / 短片
◎语  言 捷克语
◎上映日期 
◎IMDb评分  5.2/10 from 16 users
◎导  演 伊日·门泽尔 Jirí Menzel
◎编  剧 伊日·门泽尔 Jirí Menzel

◎标  签 非默片 | 纪录片 | 短片 | 1959

◎简  介

  A student work by Ji?í Menzel, filmed during his second year at the FAMU film school. Views of old Prague and its tenement buildings, symbolizing the obsolete past, alternate with shots of construction sites for new prefabricated apartment buildings. In spite of certain unavoidable propagandistic overtones added by the director, it is notable as the beginning of his search for a “dramaturgy of colors.”
  
  An early rare documentary by Ji?í Menzel
Video
ID                                       : 1
Format                                   : AVC
Format/Info                              : Advanced Video Codec
Format settings                          : CABAC / 11 Ref Frames
Format settings, CABAC                   : Yes
Format settings, Reference frames        : 11 frames
Codec ID                                 : V_MPEG4/ISO/AVC
Duration                                 : 7 min 6 s
Bit rate                                 : 8 605 kb/s
Width                                    : 986 pixels
Height                                   : 720 pixels
Display aspect ratio                     : 4:3
Frame rate mode                          : Constant
Frame rate                               : 24.000 FPS
Color space                              : YUV
Chroma subsampling                       : 4:2:0
Bit depth                                : 8 bits
Scan type                                : Progressive
Bits/(Pixel*Frame)                       : 0.505
Stream size                              : 438 MiB (97%)
Writing library                          : x264 core 161 r3018 db0d417
Encoding settings                        : cabac=1 / ref=11 / deblock=1:-3:-3 / analyse=0x3:0x133 / me=umh / subme=10 / psy=1 / psy_rd=1.00:0.15 / mixed_ref=1 / me_range=24 / chroma_me=1 / trellis=2 / 8x8dct=1 / cqm=0 / deadzone=21,11 / fast_pskip=1 / chroma_qp_offset=-3 / threads=18 / lookahead_threads=3 / sliced_threads=0 / nr=0 / decimate=1 / interlaced=0 / bluray_compat=0 / constrained_intra=0 / bframes=8 / b_pyramid=2 / b_adapt=2 / b_bias=0 / direct=3 / weightb=1 / open_gop=0 / weightp=2 / keyint=250 / keyint_min=24 / scenecut=40 / intra_refresh=0 / rc_lookahead=60 / rc=crf / mbtree=1 / crf=17.3 / qcomp=0.60 / qpmin=0 / qpmax=69 / qpstep=4 / ip_ratio=1.40 / aq=3:0.50
Language                                 : English
Default                                  : Yes
Forced                                   : No
Color range                              : Limited
Matrix coefficients                      : BT.709

Audio
ID                                       : 2
Format                                   : FLAC
Format/Info                              : Free Lossless Audio Codec
Codec ID                                 : A_FLAC
Duration                                 : 7 min 6 s
Bit rate mode                            : Variable
Bit rate                                 : 241 kb/s
Channel(s)                               : 1 channel
Channel layout                           : C
Sampling rate                            : 48.0 kHz
Frame rate                               : 11.721 FPS (4095 SPF)
Bit depth                                : 16 bits
Compression mode                         : Lossless
Stream size                              : 12.2 MiB (3%)
Writing library                          : libFLAC 1.2.1 (UTC 2007-09-17)
Language                                 : Czech
Default                                  : Yes
Forced                                   : No

Text #1
ID                                       : 3
Format                                   : UTF-8
Codec ID                                 : S_TEXT/UTF8
Codec ID/Info                            : UTF-8 Plain Text
Duration                                 : 6 min 28 s
Bit rate                                 : 18 b/s
Count of elements                        : 21
Stream size                              : 921 Bytes (0%)
Title                                    : English
Language                                 : English
Default                                  : Yes
Forced                                   : Yes

Text #2
ID                                       : 4
Format                                   : PGS
Muxing mode                              : zlib
Codec ID                                 : S_HDMV/PGS
Codec ID/Info                            : Picture based subtitle format used on BDs/HD-DVDs
Duration                                 : 7 min 6 s
Bit rate                                 : 4 248 b/s
Count of elements                        : 44
Stream size                              : 221 KiB (0%)
Title                                    : English
Language                                 : English
Default                                  : No
Forced                                   : No







2a3147cf638250187713e9d6f04c771e.zip (10.29 KB)

回复

使用道具 举报

百度云电影论坛 ( 辽ICP备17019482号-3 )

本网站所有资源来自网络,如无意中侵犯了您的权益,请发邮件至 [email protected],立即清除相关链接

GMT+8, 2020-10-23 02:08 , Processed in 0.097127 second(s), 22 queries .

Powered by Discuz! X3.2

© 2001-2013 Comsenz Inc.

快速回复 返回顶部 返回列表