百度云电影论坛

 找回密码
 立即注册

时间已过 Some.Time.Later.2018.720p.BluRay.x264-BiPOLAR 3.54GB

[复制链接]

百度云电影 发表于 2020-10-12 10:39:15 | 显示全部楼层 |阅读模式

帖子完整标题:时间已过 Some.Time.Later.2018.720p.BluRay.x264-BiPOLAR 3.54GB





◎译  名 时间已过
◎片  名 Tiempo después
◎年  代 2018
◎产  地 西班牙
◎类  别 喜剧
◎语  言 西班牙语
◎上映日期 
◎导  演 何塞·路易斯·奎尔达 José Luis Cuerda
◎编  剧 何塞·路易斯·奎尔达 José Luis Cuerda
◎主  演 布兰卡·苏亚雷斯 Blanca Suárez
       安东尼·德拉托尔 Anthony De La Torre
       罗伯托·阿拉莫 Roberto álamo

◎标  签 西班牙 | Suárez,Blanca | P-SanSebastianB非竞赛展映 | M西班牙 | D何塞·路易斯·奎尔达 | 2018 | 2010s

◎简  介

  暂无相关剧情介绍
Video
ID                                       : 1
Format                                   : AVC
Format/Info                              : Advanced Video Codec
Format settings                          : CABAC / 12 Ref Frames
Format settings, CABAC                   : Yes
Format settings, Reference frames        : 12 frames
Codec ID                                 : V_MPEG4/ISO/AVC
Duration                                 : 1 h 39 min
Bit rate                                 : 4 420 kb/s
Width                                    : 1 280 pixels
Height                                   : 536 pixels
Display aspect ratio                     : 2.40:1
Frame rate mode                          : Constant
Frame rate                               : 24.000 FPS
Color space                              : YUV
Chroma subsampling                       : 4:2:0
Bit depth                                : 8 bits
Scan type                                : Progressive
Bits/(Pixel*Frame)                       : 0.268
Stream size                              : 3.08 GiB (87%)
Writing library                          : x264 core 161 r3018 db0d417
Encoding settings                        : cabac=1 / ref=12 / deblock=1:-3:-3 / analyse=0x3:0x133 / me=umh / subme=10 / psy=1 / psy_rd=1.00:0.15 / mixed_ref=1 / me_range=24 / chroma_me=1 / trellis=2 / 8x8dct=1 / cqm=0 / deadzone=21,11 / fast_pskip=1 / chroma_qp_offset=-3 / threads=17 / lookahead_threads=2 / sliced_threads=0 / nr=0 / decimate=1 / interlaced=0 / bluray_compat=0 / constrained_intra=0 / bframes=8 / b_pyramid=2 / b_adapt=2 / b_bias=0 / direct=3 / weightb=1 / open_gop=0 / weightp=2 / keyint=250 / keyint_min=24 / scenecut=40 / intra_refresh=0 / rc_lookahead=60 / rc=crf / mbtree=1 / crf=14.0 / qcomp=0.60 / qpmin=0 / qpmax=69 / qpstep=4 / ip_ratio=1.40 / aq=3:0.70
Language                                 : English
Default                                  : Yes
Forced                                   : No
Color range                              : Limited
Matrix coefficients                      : BT.709

Audio
ID                                       : 2
Format                                   : AC-3
Format/Info                              : Audio Coding 3
Commercial name                          : Dolby Digital
Codec ID                                 : A_AC3
Duration                                 : 1 h 39 min
Bit rate mode                            : Constant
Bit rate                                 : 640 kb/s
Channel(s)                               : 6 channels
Channel layout                           : L R C LFE Ls Rs
Sampling rate                            : 48.0 kHz
Frame rate                               : 31.250 FPS (1536 SPF)
Compression mode                         : Lossy
Stream size                              : 457 MiB (13%)
Language                                 : Spanish
Service kind                             : Complete Main
Default                                  : Yes
Forced                                   : No

Text #1
ID                                       : 3
Format                                   : UTF-8
Codec ID                                 : S_TEXT/UTF8
Codec ID/Info                            : UTF-8 Plain Text
Duration                                 : 1 h 34 min
Bit rate                                 : 79 b/s
Count of elements                        : 1527
Stream size                              : 54.4 KiB (0%)
Title                                    : English
Language                                 : English
Default                                  : Yes
Forced                                   : Yes

Text #2
ID                                       : 4
Format                                   : PGS
Muxing mode                              : zlib
Codec ID                                 : S_HDMV/PGS
Codec ID/Info                            : Picture based subtitle format used on BDs/HD-DVDs
Duration                                 : 1 h 34 min
Bit rate                                 : 8 509 b/s
Count of elements                        : 3055
Stream size                              : 5.78 MiB (0%)
Title                                    : English
Language                                 : English
Default                                  : No
Forced                                   : No

Text #3
ID                                       : 5
Format                                   : PGS
Muxing mode                              : zlib
Codec ID                                 : S_HDMV/PGS
Codec ID/Info                            : Picture based subtitle format used on BDs/HD-DVDs
Duration                                 : 1 h 34 min
Bit rate                                 : 8 842 b/s
Count of elements                        : 3063
Stream size                              : 6.00 MiB (0%)
Title                                    : Spanish
Language                                 : Spanish
Default                                  : No
Forced                                   : No

Menu
00:00:00.000                             : en:00:00:00.000
00:09:41.542                             : en:00:09:41.542
00:19:37.500                             : en:00:19:37.500
00:30:05.708                             : en:00:30:05.708
00:39:45.083                             : en:00:39:45.083
00:50:50.208                             : en:00:50:50.208
00:59:35.000                             : en:00:59:35.000
01:09:59.583                             : en:01:09:59.583
01:19:22.208                             : en:01:19:22.208
01:27:50.667                             : en:01:27:50.667
01:34:58.583                             : en:01:34:58.583







09ba9afd07b4d99cd36b0789f20d7ac8.zip (36.1 KB)

回复

使用道具 举报

百度云电影论坛 ( 辽ICP备17019482号-3 )

本网站所有资源来自网络,如无意中侵犯了您的权益,请发邮件至 [email protected],立即清除相关链接

GMT+8, 2020-10-29 03:47 , Processed in 0.098311 second(s), 22 queries .

Powered by Discuz! X3.2

© 2001-2013 Comsenz Inc.

快速回复 返回顶部 返回列表