百度云电影论坛

 找回密码
 立即注册

庄园/动荡是家园(澳) The.Domain.2019.720p.BluRay.x264-BiPOLAR 7.14GB

[复制链接]

百度云电影 发表于 2020-10-12 10:39:11 | 显示全部楼层 |阅读模式

帖子完整标题:庄园/动荡是家园(澳) The.Domain.2019.720p.BluRay.x264-BiPOLAR 7.14GB





◎译  名 庄园/动荡是家园(澳)/疆域/遗产
◎片  名 A Herdade
◎年  代 2019
◎产  地 葡萄牙,法国
◎类  别 剧情
◎语  言 葡萄牙语
◎上映日期 2019-09-05(威尼斯电影节) / 2019-09-19(葡萄牙)
◎IMDb评分  6.7/10 from 938 users
◎片  长 166分钟
◎导  演 蒂亚戈·盖吉思 Tiago Guedes
◎编  剧 蒂亚戈·盖吉思 Tiago Guedes / 吉尔·托兰 Gilles Taurand
◎主  演 Albano Jerónimo
       米格尔·博尔赫斯 Miguel Borges
       Beatriz Brás
       Diogo Dória
       Ana Bustorff
       维多利亚·盖拉 Victória Guerra
       Filipe Vargas
       特丽莎·马德鲁加 Teresa Madruga
       Candido Ferreira
       约翰·尤海斯 Jo?o Arrais
       Dinis Gomes
       阿梅瑞科·席尔娃 Américo Silva
       马塞洛·乌戈盖 Marcello Urgeghe

◎标  签 葡萄牙 | 2019 | 葡萄牙电影 | 家庭 | 剧情 | 人生 | 蒂亚戈·盖吉思 | 欧洲

◎简  介

  葡萄牙名導Tiago Guedes第五部劇情長片以一幕美麗懾人的場景作為開場,靜謐的鄉村小鎮卻發生一連串慘案,永遠改變了Joao Fernandez的一生。20年後,葡萄牙受右翼的第二共和國政權統治,這時的Joao已是名富有的地主,並成為家族裡最具主見的領導人。由Joao帶領的家族勢力在接下來的40餘年,都將在葡萄牙歷史中佔有重要地位,不僅與動盪不定的政治、社會變遷相抗衡,家族埋藏已久的秘密與謊言也將水落石出。導演Guedes以19世紀葡萄牙文學家Jose Maria Eca de Queiroz的現實主義故事為主軸,創造出獨一無二的藝術視角,聚焦傳統大家族的內部關係如何受外在世界所影響,結果如同另一名19世紀文學家所言:「一切堅固的事物都終將煙消雲散」。

◎获奖情况

  第76届威尼斯电影节 ?(2019)
  主竞赛单元金狮奖(提名) 蒂亚戈·盖吉思
Video
ID                                       : 1
Format                                   : AVC
Format/Info                              : Advanced Video Codec
Format settings                          : CABAC / 12 Ref Frames
Format settings, CABAC                   : Yes
Format settings, Reference frames        : 12 frames
Codec ID                                 : V_MPEG4/ISO/AVC
Duration                                 : 2 h 53 min
Bit rate                                 : 5 232 kb/s
Width                                    : 1 280 pixels
Height                                   : 536 pixels
Display aspect ratio                     : 2.40:1
Frame rate mode                          : Constant
Frame rate                               : 24.000 FPS
Color space                              : YUV
Chroma subsampling                       : 4:2:0
Bit depth                                : 8 bits
Scan type                                : Progressive
Bits/(Pixel*Frame)                       : 0.318
Stream size                              : 6.32 GiB (89%)
Writing library                          : x264 core 161 r3018 db0d417
Encoding settings                        : cabac=1 / ref=12 / deblock=1:-3:-3 / analyse=0x3:0x133 / me=umh / subme=10 / psy=1 / psy_rd=1.00:0.15 / mixed_ref=1 / me_range=24 / chroma_me=1 / trellis=2 / 8x8dct=1 / cqm=0 / deadzone=21,11 / fast_pskip=1 / chroma_qp_offset=-3 / threads=17 / lookahead_threads=2 / sliced_threads=0 / nr=0 / decimate=1 / interlaced=0 / bluray_compat=0 / constrained_intra=0 / bframes=8 / b_pyramid=2 / b_adapt=2 / b_bias=0 / direct=3 / weightb=1 / open_gop=0 / weightp=2 / keyint=250 / keyint_min=24 / scenecut=40 / intra_refresh=0 / rc_lookahead=60 / rc=crf / mbtree=1 / crf=16.0 / qcomp=0.60 / qpmin=0 / qpmax=69 / qpstep=4 / ip_ratio=1.40 / aq=3:0.70
Language                                 : English
Default                                  : Yes
Forced                                   : No
Color range                              : Limited
Matrix coefficients                      : BT.709

Audio
ID                                       : 2
Format                                   : AC-3
Format/Info                              : Audio Coding 3
Commercial name                          : Dolby Digital
Codec ID                                 : A_AC3
Duration                                 : 2 h 53 min
Bit rate mode                            : Constant
Bit rate                                 : 640 kb/s
Channel(s)                               : 6 channels
Channel layout                           : L R C LFE Ls Rs
Sampling rate                            : 48.0 kHz
Frame rate                               : 31.250 FPS (1536 SPF)
Compression mode                         : Lossy
Stream size                              : 792 MiB (11%)
Language                                 : Portuguese
Service kind                             : Complete Main
Default                                  : Yes
Forced                                   : No

Text #1
ID                                       : 3
Format                                   : UTF-8
Codec ID                                 : S_TEXT/UTF8
Codec ID/Info                            : UTF-8 Plain Text
Duration                                 : 2 h 50 min
Bit rate                                 : 29 b/s
Count of elements                        : 1227
Stream size                              : 36.5 KiB (0%)
Title                                    : English
Language                                 : English
Default                                  : Yes
Forced                                   : Yes

Text #2
ID                                       : 4
Format                                   : PGS
Muxing mode                              : zlib
Codec ID                                 : S_HDMV/PGS
Codec ID/Info                            : Picture based subtitle format used on BDs/HD-DVDs
Duration                                 : 2 h 50 min
Bit rate                                 : 7 581 b/s
Count of elements                        : 2454
Stream size                              : 9.23 MiB (0%)
Title                                    : English
Language                                 : English
Default                                  : No
Forced                                   : No

Text #3
ID                                       : 5
Format                                   : UTF-8
Codec ID                                 : S_TEXT/UTF8
Codec ID/Info                            : UTF-8 Plain Text
Duration                                 : 2 h 52 min
Bit rate                                 : 29 b/s
Count of elements                        : 1181
Stream size                              : 37.3 KiB (0%)
Title                                    : French
Language                                 : French
Default                                  : No
Forced                                   : No

Text #4
ID                                       : 6
Format                                   : PGS
Muxing mode                              : zlib
Codec ID                                 : S_HDMV/PGS
Codec ID/Info                            : Picture based subtitle format used on BDs/HD-DVDs
Duration                                 : 2 h 52 min
Bit rate                                 : 7 150 b/s
Count of elements                        : 2362
Stream size                              : 8.83 MiB (0%)
Title                                    : French
Language                                 : French
Default                                  : No
Forced                                   : No

Text #5
ID                                       : 7
Format                                   : PGS
Muxing mode                              : zlib
Codec ID                                 : S_HDMV/PGS
Codec ID/Info                            : Picture based subtitle format used on BDs/HD-DVDs
Duration                                 : 2 h 50 min
Bit rate                                 : 7 179 b/s
Count of elements                        : 2286
Stream size                              : 8.74 MiB (0%)
Title                                    : Italian
Language                                 : Italian
Default                                  : No
Forced                                   : No

Text #6
ID                                       : 8
Format                                   : PGS
Muxing mode                              : zlib
Codec ID                                 : S_HDMV/PGS
Codec ID/Info                            : Picture based subtitle format used on BDs/HD-DVDs
Duration                                 : 2 h 50 min
Bit rate                                 : 7 854 b/s
Count of elements                        : 2462
Stream size                              : 9.56 MiB (0%)
Title                                    : Spanish
Language                                 : Spanish
Default                                  : No
Forced                                   : No

Menu
00:00:00.000                             : en:00:00:00.000
00:10:19.000                             : en:00:10:19.000
00:20:43.000                             : en:00:20:43.000
00:28:00.500                             : en:00:28:00.500
00:44:45.500                             : en:00:44:45.500
00:51:12.000                             : en:00:51:12.000
01:00:51.500                             : en:01:00:51.500
01:13:19.000                             : en:01:13:19.000
01:23:52.500                             : en:01:23:52.500
01:27:33.500                             : en:01:27:33.500
01:43:05.000                             : en:01:43:05.000
01:54:31.500                             : en:01:54:31.500
02:09:42.500                             : en:02:09:42.500
02:15:47.000                             : en:02:15:47.000
02:24:26.000                             : en:02:24:26.000
02:39:41.000                             : en:02:39:41.000
02:47:47.000                             : en:02:47:47.000





                                                                                                                                                                                                        
                                                                                                                                                                                                                                          
b34b4cf9d5bc1f89ac0b3860ece28c9a.zip (36.36 KB)

回复

使用道具 举报

百度云电影论坛 ( 辽ICP备17019482号-3 )

本网站所有资源来自网络,如无意中侵犯了您的权益,请发邮件至 [email protected],立即清除相关链接

GMT+8, 2020-10-23 01:21 , Processed in 0.091641 second(s), 22 queries .

Powered by Discuz! X3.2

© 2001-2013 Comsenz Inc.

快速回复 返回顶部 返回列表