百度云电影论坛

 找回密码
 立即注册

不想要 Not.Wanted.1949.720p.BluRay.x264-BiPOLAR 5.17GB

[复制链接]

百度云电影 发表于 2020-10-11 11:30:23 | 显示全部楼层 |阅读模式

帖子完整标题:不想要 Not.Wanted.1949.720p.BluRay.x264-BiPOLAR 5.17GB





◎译  名 不想要
◎片  名 Not Wanted
◎年  代 1949
◎产  地 美国
◎类  别 剧情
◎语  言 英语
◎上映日期 1949
◎IMDb评分  6.9/10 from 481 users
◎导  演 艾尔玛·克里夫顿 Elmer Clifton / 艾达·卢皮诺 Ida Lupino
◎编  剧 保罗·贾里科 Paul Jarrico / 马尔文·沃尔德 Malvin Wald / 艾达·卢皮诺 Ida Lupino
◎主  演 莎莉·佛瑞斯特 Sally Forrest
       基弗·布拉赛勒 Keefe Brasselle
       利奥·潘 Leo Penn
       多萝西·亚当斯 Dorothy Adams
       Anne O'Neal
       查尔斯·希尔 Charles Seel
       Leo Sulky
       Ruthelma Stevens
       罗伯特威廉姆斯 Robert Williams
       Patrick Whyte
       鲍勃·杰利森 Bob Jellison
       Marie Harmon
       劳伦斯·多布金 Lawrence Dobkin
       Gregg Barton
       汤姆·科尔曼 Tom Coleman
       惠顿·钱伯斯 Wheaton Chambers
       露丝·克利福德 Ruth Clifford
       Dian Fauntelle

◎标  签 黑色电影 | 美國 | 美国 | P-LocarnoA入围主竞赛 | Ida_Lupino | 40 | 1940s | 记号

◎简  介

  暂无相关剧情介绍
Video
ID                                       : 1
Format                                   : AVC
Format/Info                              : Advanced Video Codec
Format settings                          : CABAC / 11 Ref Frames
Format settings, CABAC                   : Yes
Format settings, Reference frames        : 11 frames
Codec ID                                 : V_MPEG4/ISO/AVC
Duration                                 : 1 h 31 min
Bit rate                                 : 7 718 kb/s
Width                                    : 980 pixels
Height                                   : 720 pixels
Display aspect ratio                     : 4:3
Frame rate mode                          : Constant
Frame rate                               : 23.976 (24000/1001/189150) FPS
Color space                              : YUV
Chroma subsampling                       : 4:2:0
Bit depth                                : 8 bits
Scan type                                : Progressive
Bits/(Pixel*Frame)                       : 0.456
Stream size                              : 4.92 GiB (95%)
Writing library                          : x264 core 161 r3018 db0d417
Encoding settings                        : cabac=1 / ref=11 / deblock=1:-3:-3 / analyse=0x3:0x133 / me=umh / subme=10 / psy=1 / psy_rd=1.00:0.15 / mixed_ref=1 / me_range=24 / chroma_me=1 / trellis=2 / 8x8dct=1 / cqm=0 / deadzone=21,11 / fast_pskip=1 / chroma_qp_offset=-3 / threads=18 / lookahead_threads=3 / sliced_threads=0 / nr=0 / decimate=1 / interlaced=0 / bluray_compat=0 / constrained_intra=0 / bframes=8 / b_pyramid=2 / b_adapt=2 / b_bias=0 / direct=3 / weightb=1 / open_gop=0 / weightp=2 / keyint=250 / keyint_min=23 / scenecut=40 / intra_refresh=0 / rc_lookahead=60 / rc=crf / mbtree=1 / crf=16.5 / qcomp=0.60 / qpmin=0 / qpmax=69 / qpstep=4 / ip_ratio=1.40 / aq=3:0.50
Language                                 : English
Default                                  : Yes
Forced                                   : No

Audio #1
ID                                       : 2
Format                                   : FLAC
Format/Info                              : Free Lossless Audio Codec
Codec ID                                 : A_FLAC
Duration                                 : 1 h 31 min
Bit rate mode                            : Variable
Bit rate                                 : 295 kb/s
Channel(s)                               : 2 channels
Channel layout                           : L R
Sampling rate                            : 48.0 kHz
Frame rate                               : 11.719 FPS (4096 SPF)
Bit depth                                : 16 bits
Compression mode                         : Lossless
Stream size                              : 192 MiB (4%)
Writing library                          : libFLAC 1.2.1 (UTC 2007-09-17)
Language                                 : English
Default                                  : Yes
Forced                                   : No

Audio #2
ID                                       : 3
Format                                   : AAC LC
Format/Info                              : Advanced Audio Codec Low Complexity
Codec ID                                 : A_AAC-2
Duration                                 : 1 h 31 min
Bit rate                                 : 82.6 kb/s
Channel(s)                               : 2 channels
Channel layout                           : L R
Sampling rate                            : 48.0 kHz
Frame rate                               : 46.875 FPS (1024 SPF)
Compression mode                         : Lossy
Delay relative to video                  : 9 ms
Stream size                              : 53.9 MiB (1%)
Title                                    : English Commentary by Greg Ford and Barbara Scharres
Language                                 : English
Default                                  : No
Forced                                   : No

Text #1
ID                                       : 4
Format                                   : UTF-8
Codec ID                                 : S_TEXT/UTF8
Codec ID/Info                            : UTF-8 Plain Text
Duration                                 : 1 h 26 min
Bit rate                                 : 49 b/s
Count of elements                        : 940
Stream size                              : 31.5 KiB (0%)
Title                                    : English
Language                                 : English
Default                                  : No
Forced                                   : No

Text #2
ID                                       : 5
Format                                   : PGS
Muxing mode                              : zlib
Codec ID                                 : S_HDMV/PGS
Codec ID/Info                            : Picture based subtitle format used on BDs/HD-DVDs
Duration                                 : 1 h 26 min
Bit rate                                 : 11.6 kb/s
Count of elements                        : 1880
Stream size                              : 7.24 MiB (0%)
Title                                    : English
Language                                 : English
Default                                  : No
Forced                                   : No

Menu
00:00:00.000                             : en:00:00:00.000
00:11:02.412                             : en:00:11:02.412
00:21:51.769                             : en:00:21:51.769
00:32:27.988                             : en:00:32:27.988
00:46:53.853                             : en:00:46:53.853
00:56:24.923                             : en:00:56:24.923
01:09:16.444                             : en:01:09:16.444
01:19:50.703                             : en:01:19:50.703





                                                                                                                                                                                                        
                                                                                                                                                                                                                                                                                                                                                                                                                                                                                                                                                                                                                                                                                                                                 
40501a143a2b02f6be53aaddc01284cc.zip (27.31 KB)

回复

使用道具 举报

百度云电影论坛 ( 辽ICP备17019482号-3 )

本网站所有资源来自网络,如无意中侵犯了您的权益,请发邮件至 [email protected],立即清除相关链接

GMT+8, 2020-10-23 02:41 , Processed in 0.093831 second(s), 22 queries .

Powered by Discuz! X3.2

© 2001-2013 Comsenz Inc.

快速回复 返回顶部 返回列表