百度云电影论坛

 找回密码
 立即注册

鱼的故事 Fish.Story.2009.720p.BluRay.x264-USURY 5.33GB

[复制链接]

百度云电影 发表于 2020-10-11 11:28:25 | 显示全部楼层 |阅读模式
帖子完整标题:鱼的故事 Fish.Story.2009.720p.BluRay.x264-USURY 5.33GB





◎译  名 鱼的故事/Fish Story/一首Punk歌救地球(港)
◎片  名 フィッシュストーリー
◎年  代 2009
◎产  地 日本
◎类  别 喜剧
◎语  言 日语
◎上映日期 2009-03-20(日本)
◎IMDb评分  7.6/10 from 2647 users
◎片  长 112分钟
◎导  演 中村义洋 Yoshihiro Nakamura
◎编  剧 伊坂幸太郎 Kotaro Isaka / 林民夫 Tamio Hayashi
◎主  演 伊藤淳史 Atsushi It?
       高良健吾 Kengo Kora
       多部未华子 Mikako Tabe
       滨田岳 Gaku Hamada
       森山未来 Mirai Moriyama
       大森南朋 Nao Omori
       恩田括 Matomu Onda
       江口德子 Noriko Eguchi
       草村礼子 Reiko Kusamura
       山中崇 Takashi Yamanaka
       泷藤贤一 Kenichi Takito
       大谷英子 Otani Eiko
       涩川清彦 Kiyohiko Shibukawa
       郭侑纪 Youki Kato
       文森特·吉里 Vincent Giry
       波冈一喜 Kazuki Namioka
       山下敦弘 Nobuhiro Yamashita
       今进隆文 Takafumi Imai

◎标  签 日本 | 伊坂幸太郎 | 日本电影 | 中村义洋 | 高良健吾 | 2009 | 电影 | 喜剧

◎简  介

  四个时间段,四段不同年龄段的人不同的生活片段,四个看似独立的故事,可冥冥之中却被串联起来,成了改变世界的最强音。改编自作家伊坂幸太郎的同名小说,看一首朋克如何拯救地球。
  
  1975年,逆鳞乐队正在录制他们的最后一张专辑,主唱五郎(高良健吾 饰)和团长繁树(伊藤淳史 饰)抱着复杂的心情把专辑命名为《鱼的故事》;1982年,大学生们盛传着关于专辑《鱼的故事》的恐怖传说,平日里胆小的大学生雅史(滨田岳 饰)在夜晚回家的出租车上听到了这首,然后遇到了改变他人生的事;2009年,一艘轮渡载着旅客和少女麻美(多部未华子 饰)在海上行驶,却遇上了劫持轮渡的歹徒,可这时,正义使者(森山未来 饰)出现了;2012年,距离世界末日的最后五小时,奇迹却在这时出现……

◎获奖情况

  第4届亚洲电影大奖 ?(2010)
  最佳原创音乐(提名) 齐藤和义
Video
ID                                       : 1
Format                                   : AVC
Format/Info                              : Advanced Video Codec
Format settings                          : CABAC / 9 Ref Frames
Format settings, CABAC                   : Yes
Format settings, Reference frames        : 9 frames
Codec ID                                 : V_MPEG4/ISO/AVC
Duration                                 : 1 h 52 min
Bit rate                                 : 5 596 kb/s
Width                                    : 1 280 pixels
Height                                   : 694 pixels
Display aspect ratio                     : 1.85:1
Frame rate mode                          : Constant
Frame rate                               : 23.976 (24000/1001/189150) FPS
Color space                              : YUV
Chroma subsampling                       : 4:2:0
Bit depth                                : 8 bits
Scan type                                : Progressive
Bits/(Pixel*Frame)                       : 0.263
Stream size                              : 4.39 GiB (82%)
Writing library                          : x264 core 161 r3018 db0d417
Encoding settings                        : cabac=1 / ref=9 / deblock=1:-3:-3 / analyse=0x3:0x133 / me=umh / subme=10 / psy=1 / psy_rd=1.00:0.15 / mixed_ref=1 / me_range=24 / chroma_me=1 / trellis=2 / 8x8dct=1 / cqm=0 / deadzone=21,11 / fast_pskip=1 / chroma_qp_offset=-3 / threads=18 / lookahead_threads=3 / sliced_threads=0 / nr=0 / decimate=1 / interlaced=0 / bluray_compat=0 / constrained_intra=0 / bframes=8 / b_pyramid=2 / b_adapt=2 / b_bias=0 / direct=3 / weightb=1 / open_gop=0 / weightp=2 / keyint=250 / keyint_min=23 / scenecut=40 / intra_refresh=0 / rc_lookahead=60 / rc=crf / mbtree=1 / crf=17.0 / qcomp=0.60 / qpmin=0 / qpmax=69 / qpstep=4 / ip_ratio=1.40 / aq=3:0.60
Language                                 : English
Default                                  : Yes
Forced                                   : No
Color range                              : Limited
Matrix coefficients                      : BT.709

Audio
ID                                       : 2
Format                                   : FLAC
Format/Info                              : Free Lossless Audio Codec
Codec ID                                 : A_FLAC
Duration                                 : 1 h 52 min
Bit rate mode                            : Variable
Bit rate                                 : 1 180 kb/s
Channel(s)                               : 2 channels
Channel layout                           : L R
Sampling rate                            : 48.0 kHz
Frame rate                               : 11.719 FPS (4096 SPF)
Bit depth                                : 24 bits
Compression mode                         : Lossless
Stream size                              : 947 MiB (17%)
Writing library                          : libFLAC 1.2.1 (UTC 2007-09-17)
Language                                 : Japanese
Default                                  : Yes
Forced                                   : No

Text #1
ID                                       : 3
Format                                   : UTF-8
Codec ID                                 : S_TEXT/UTF8
Codec ID/Info                            : UTF-8 Plain Text
Duration                                 : 1 h 51 min
Bit rate                                 : 41 b/s
Count of elements                        : 1029
Stream size                              : 33.8 KiB (0%)
Title                                    : English
Language                                 : English
Default                                  : Yes
Forced                                   : Yes

Text #2
ID                                       : 4
Format                                   : PGS
Muxing mode                              : zlib
Codec ID                                 : S_HDMV/PGS
Codec ID/Info                            : Picture based subtitle format used on BDs/HD-DVDs
Duration                                 : 1 h 51 min
Bit rate                                 : 22.7 kb/s
Count of elements                        : 2017
Stream size                              : 18.1 MiB (0%)
Title                                    : English
Language                                 : English
Default                                  : No
Forced                                   : No

Menu
00:00:00.000                             : en:00:00:00.000
00:09:10.133                             : en:00:09:10.133
00:15:00.650                             : en:00:15:00.650
00:22:45.948                             : en:00:22:45.948
00:28:50.812                             : en:00:28:50.812
00:35:31.588                             : en:00:35:31.588
00:50:08.214                             : en:00:50:08.214
00:55:47.219                             : en:00:55:47.219
00:58:21.832                             : en:00:58:21.832
01:04:16.728                             : en:01:04:16.728
01:14:09.153                             : en:01:14:09.153
01:21:10.824                             : en:01:21:10.824
01:27:41.631                             : en:01:27:41.631
01:37:47.195                             : en:01:37:47.195
01:42:40.321                             : en:01:42:40.321
01:47:44.917                             : en:01:47:44.917





                                                                                                                                                                                                        


27508819ffb0dcb60d8af37fc1a1401a.zip (27.32 KB)

回复

使用道具 举报

百度云电影论坛 ( 辽ICP备17019482号-3 )

本网站所有资源来自网络,如无意中侵犯了您的权益,请发邮件至 [email protected],立即清除相关链接

GMT+8, 2020-10-29 04:39 , Processed in 0.111647 second(s), 22 queries .

Powered by Discuz! X3.2

© 2001-2013 Comsenz Inc.

快速回复 返回顶部 返回列表