百度云电影论坛

 找回密码
 立即注册

仁义的墓场 Graveyard.of.Honor.1975.720p.BluRay.x264-USURY 5.49GB

[复制链接]

百度云电影 发表于 2020-10-11 11:28:15 | 显示全部楼层 |阅读模式

帖子完整标题:仁义的墓场 Graveyard.of.Honor.1975.720p.BluRay.x264-USURY 5.49GB





◎译  名 仁义的墓场/Death of Honor/Graveyard of Honour/Jingi no hakaba
◎片  名 仁義の墓場
◎年  代 1975
◎产  地 日本
◎类  别 动作 / 犯罪
◎语  言 日语
◎上映日期 1975-02-15
◎IMDb评分  7.3/10 from 1366 users
◎片  长 Japan: 94 分钟
◎导  演 深作欣二 Kinji Fukasaku
◎编  剧 松田宽夫 Hir? Matsuda / 神波史男 Fumio K?nami
◎主  演 渡哲也 Tetsuya Watari
       梅宫辰夫 Tatsuo Umemiya
       多岐川裕美 Yumi Takigawa
       池玲子 Reiko Ike
       芹明香 Meika Seri
       山城新伍 Shingo Yamashiro
       田中邦卫 Kunie Tanaka
       苅谷俊介 Shunsuke Kariya
       室田日出男 Hideo Murota
       乡英治 Eiji Go
       鼻肇 Hajime Hana
       成田三树夫 Mikio Narita

◎标  签 深作欣二 | 日本 | 黑帮 | 日本电影 | 犯罪 | 暴力 | 1975 | 1970s

◎简  介

  自幼希望成为黑社会的石川力夫(渡哲也 饰)1940年加入河田组。石川为组织之壮大卖命打拼,但也因其狂暴激进的脾气而始终不得重用,心存愤懑。
  
  战后,石川与在北海道狱中结识的好友今井幸三郎(梅宫辰夫 饰)向中国帮派发起进攻,战争中石川结识酒肆侍女地惠子(多岐川裕美 饰)。凭借警方纵容,今井接管中国人赌场,成立今井组。石川刺伤池袋亲和会成员,两派剑拔弩张,河田组长出钱请美国人干预摆平。不久石川因受训斥,炸毁河田组上层领导野津幸三郎(安藤升 饰)之坐驾,接二连三祸事令河田对石川大加挞伐。石川酒醉后刺伤组长,犯黑帮大忌,被黑社会逐出东京10年。于大阪染上毒瘾的石川一年后返回东京,受河田压力的今井与石川关系破裂,石川将枪口对准了昔日结拜兄弟的胸口……
Video
ID                                       : 1
Format                                   : AVC
Format/Info                              : Advanced Video Codec
Format settings                          : CABAC / 12 Ref Frames
Format settings, CABAC                   : Yes
Format settings, Reference frames        : 12 frames
Codec ID                                 : V_MPEG4/ISO/AVC
Duration                                 : 1 h 33 min
Bit rate                                 : 7 661 kb/s
Width                                    : 1 280 pixels
Height                                   : 544 pixels
Display aspect ratio                     : 2.35:1
Frame rate mode                          : Constant
Frame rate                               : 23.976 (24000/1001/189150) FPS
Color space                              : YUV
Chroma subsampling                       : 4:2:0
Bit depth                                : 8 bits
Scan type                                : Progressive
Bits/(Pixel*Frame)                       : 0.459
Stream size                              : 5.01 GiB (91%)
Writing library                          : x264 core 161 r3018 db0d417
Encoding settings                        : cabac=1 / ref=12 / deblock=1:-3:-3 / analyse=0x3:0x133 / me=umh / subme=10 / psy=1 / psy_rd=1.00:0.15 / mixed_ref=1 / me_range=24 / chroma_me=1 / trellis=2 / 8x8dct=1 / cqm=0 / deadzone=21,11 / fast_pskip=1 / chroma_qp_offset=-3 / threads=17 / lookahead_threads=2 / sliced_threads=0 / nr=0 / decimate=1 / interlaced=0 / bluray_compat=0 / constrained_intra=0 / bframes=8 / b_pyramid=2 / b_adapt=2 / b_bias=0 / direct=3 / weightb=1 / open_gop=0 / weightp=2 / keyint=250 / keyint_min=23 / scenecut=40 / intra_refresh=0 / rc_lookahead=60 / rc=crf / mbtree=1 / crf=18.0 / qcomp=0.60 / qpmin=0 / qpmax=69 / qpstep=4 / ip_ratio=1.40 / aq=3:0.50
Language                                 : English
Default                                  : Yes
Forced                                   : No
Color range                              : Limited
Matrix coefficients                      : BT.709

Audio #1
ID                                       : 2
Format                                   : FLAC
Format/Info                              : Free Lossless Audio Codec
Codec ID                                 : A_FLAC
Duration                                 : 1 h 33 min
Bit rate mode                            : Variable
Bit rate                                 : 659 kb/s
Channel(s)                               : 1 channel
Channel layout                           : C
Sampling rate                            : 48.0 kHz
Frame rate                               : 11.719 FPS (4096 SPF)
Bit depth                                : 24 bits
Compression mode                         : Lossless
Stream size                              : 441 MiB (8%)
Writing library                          : libFLAC 1.2.1 (UTC 2007-09-17)
Language                                 : Japanese
Default                                  : Yes
Forced                                   : No

Audio #2
ID                                       : 3
Format                                   : AAC LC
Format/Info                              : Advanced Audio Codec Low Complexity
Codec ID                                 : A_AAC-2
Duration                                 : 1 h 33 min
Bit rate                                 : 59.8 kb/s
Channel(s)                               : 1 channel
Channel layout                           : C
Sampling rate                            : 48.0 kHz
Frame rate                               : 46.875 FPS (1024 SPF)
Compression mode                         : Lossy
Delay relative to video                  : 9 ms
Stream size                              : 40.0 MiB (1%)
Title                                    : English Commentary by Mark Schilling
Language                                 : English
Default                                  : No
Forced                                   : No

Text #1
ID                                       : 4
Format                                   : UTF-8
Codec ID                                 : S_TEXT/UTF8
Codec ID/Info                            : UTF-8 Plain Text
Duration                                 : 1 h 33 min
Bit rate                                 : 30 b/s
Count of elements                        : 645
Stream size                              : 21.0 KiB (0%)
Title                                    : English
Language                                 : English
Default                                  : Yes
Forced                                   : Yes

Text #2
ID                                       : 5
Format                                   : PGS
Muxing mode                              : zlib
Codec ID                                 : S_HDMV/PGS
Codec ID/Info                            : Picture based subtitle format used on BDs/HD-DVDs
Duration                                 : 1 h 33 min
Bit rate                                 : 5 457 b/s
Count of elements                        : 1290
Stream size                              : 3.65 MiB (0%)
Title                                    : English
Language                                 : English
Default                                  : No
Forced                                   : No

Menu
00:00:00.000                             : en:00:00:00.000
00:07:46.299                             : en:00:07:46.299
00:15:07.156                             : en:00:15:07.156
00:23:46.634                             : en:00:23:46.634
00:30:43.050                             : en:00:30:43.050
00:39:11.724                             : en:00:39:11.724
00:47:53.537                             : en:00:47:53.537
00:55:57.980                             : en:00:55:57.980
01:03:03.989                             : en:01:03:03.989
01:09:19.739                             : en:01:09:19.739
01:18:31.332                             : en:01:18:31.332
01:26:39.653                             : en:01:26:39.653





c857f639a8974cee937a324cf3cac7f7.zip (28.13 KB)

回复

使用道具 举报

百度云电影论坛 ( 辽ICP备17019482号-3 )

本网站所有资源来自网络,如无意中侵犯了您的权益,请发邮件至 [email protected],立即清除相关链接

GMT+8, 2020-10-29 04:21 , Processed in 0.106406 second(s), 22 queries .

Powered by Discuz! X3.2

© 2001-2013 Comsenz Inc.

快速回复 返回顶部 返回列表