百度云电影论坛

 找回密码
 立即注册

新仁义的墓场 Graveyard.of.Honor.2002.720p.BluRay.x264-USURY 8.98GB

[复制链接]

百度云电影 发表于 2020-10-11 11:28:00 | 显示全部楼层 |阅读模式

帖子完整标题:新仁义的墓场 Graveyard.of.Honor.2002.720p.BluRay.x264-USURY 8.98GB





◎译  名 新仁义的墓场/Graveyard of Honor
◎片  名 新?仁義の墓場
◎年  代 2002
◎产  地 日本
◎类  别 动作 / 惊悚 / 犯罪
◎语  言 日语
◎上映日期 2002-06-22(日本)
◎片  长 131分钟
◎导  演 三池崇史 Takashi Miike
◎编  剧 武知镇典 Shigenori Takechi
◎主  演 岸谷五朗 Gor? Kishitani
       美木良介 Ry?suke Miki
       有森也实 Narimi Arimori
       大地义行 Yoshiyuki Daichi
       大泽树生 Mikio ?sawa
       曾根晴美 Harumi Sone
       隆大介 Daisuke Ry?
       石桥莲司 Renji Ishibashi
       菅田俊 Shun Sugata
       山口祥行 Yoshiyuki Yamaguchi
       本田博太郎 Hirotar? Honda
       山下真司 Shinji Yamashita
       井上晴美 Harumi Inoue
       安冈力也 Rikiya Yasuoka
       天宮良 Ryo Amamiya
       小林成男 Shigeo Kobayashi
       本宫泰风 Yasukaze Motomiya
       曽根悠多 Y?ta Sone
       三池崇史 Takashi Miike
       山城新伍 Shingo Yamashiro
       丹波哲郎 Tetsur? Tanba

◎标  签 三池崇史 | 日本 | 黑帮 | 犯罪 | 日本电影 | 暴力 | cult | 2002

◎简  介

  新宿黑帮泽田一家总长?泽田忍(山城新伍 饰)在饭店遭杀手(三池崇史 饰)袭击,被店内小工石松陆夫(岸谷五朗 饰)救下。自此,刚满20岁、名不见经传的小人物石松平步青云,与黑帮老大泽田结为兄弟,在组织内享有极高声望。
  
  石松奉命刺杀老大的仇人,最终获罪入狱服刑5年,在狱中结识义友会干部今村幸三(美木良介 饰),结为兄弟。5年时间,泡沫经济令黑帮的生活也举步维艰。出狱后的石松请求泽田给他的妻子志惠子(有森也实 饰)一家夜店,然二人发生误会,石松枪伤泽田,犯下黑社会的大忌,从此开始了黑暗的毁灭之路……
Video
ID                                       : 1
Format                                   : AVC
Format/Info                              : Advanced Video Codec
Format settings                          : CABAC / 9 Ref Frames
Format settings, CABAC                   : Yes
Format settings, Reference frames        : 9 frames
Codec ID                                 : V_MPEG4/ISO/AVC
Duration                                 : 2 h 10 min
Bit rate                                 : 8 376 kb/s
Width                                    : 1 280 pixels
Height                                   : 692 pixels
Display aspect ratio                     : 1.85:1
Frame rate mode                          : Constant
Frame rate                               : 23.976 (24000/1001/189150) FPS
Color space                              : YUV
Chroma subsampling                       : 4:2:0
Bit depth                                : 8 bits
Scan type                                : Progressive
Bits/(Pixel*Frame)                       : 0.394
Stream size                              : 7.65 GiB (85%)
Writing library                          : x264 core 161 r3018 db0d417
Encoding settings                        : cabac=1 / ref=9 / deblock=1:-3:-3 / analyse=0x3:0x133 / me=umh / subme=10 / psy=1 / psy_rd=1.00:0.15 / mixed_ref=1 / me_range=24 / chroma_me=1 / trellis=2 / 8x8dct=1 / cqm=0 / deadzone=21,11 / fast_pskip=1 / chroma_qp_offset=-3 / threads=18 / lookahead_threads=3 / sliced_threads=0 / nr=0 / decimate=1 / interlaced=0 / bluray_compat=0 / constrained_intra=0 / bframes=8 / b_pyramid=2 / b_adapt=2 / b_bias=0 / direct=3 / weightb=1 / open_gop=0 / weightp=2 / keyint=250 / keyint_min=23 / scenecut=40 / intra_refresh=0 / rc_lookahead=60 / rc=crf / mbtree=1 / crf=19.0 / qcomp=0.60 / qpmin=0 / qpmax=69 / qpstep=4 / ip_ratio=1.40 / aq=3:0.50
Language                                 : English
Default                                  : Yes
Forced                                   : No
Color range                              : Limited
Matrix coefficients                      : BT.709

Audio #1
ID                                       : 2
Format                                   : FLAC
Format/Info                              : Free Lossless Audio Codec
Codec ID                                 : A_FLAC
Duration                                 : 2 h 10 min
Bit rate mode                            : Variable
Bit rate                                 : 1 369 kb/s
Channel(s)                               : 2 channels
Channel layout                           : L R
Sampling rate                            : 48.0 kHz
Frame rate                               : 11.719 FPS (4096 SPF)
Bit depth                                : 24 bits
Compression mode                         : Lossless
Delay relative to video                  : 1 s 0 ms
Stream size                              : 1.25 GiB (14%)
Writing library                          : libFLAC 1.2.1 (UTC 2007-09-17)
Language                                 : Japanese
Default                                  : Yes
Forced                                   : No

Audio #2
ID                                       : 3
Format                                   : AAC LC
Format/Info                              : Advanced Audio Codec Low Complexity
Codec ID                                 : A_AAC-2
Duration                                 : 2 h 10 min
Bit rate                                 : 90.0 kb/s
Channel(s)                               : 2 channels
Channel layout                           : L R
Sampling rate                            : 48.0 kHz
Frame rate                               : 46.875 FPS (1024 SPF)
Compression mode                         : Lossy
Delay relative to video                  : 945 ms
Stream size                              : 84.1 MiB (1%)
Title                                    : English Commentary by Tom Mes
Language                                 : English
Default                                  : No
Forced                                   : No

Text #1
ID                                       : 4
Format                                   : UTF-8
Codec ID                                 : S_TEXT/UTF8
Codec ID/Info                            : UTF-8 Plain Text
Duration                                 : 2 h 10 min
Bit rate                                 : 19 b/s
Count of elements                        : 667
Stream size                              : 18.6 KiB (0%)
Title                                    : English
Language                                 : English
Default                                  : Yes
Forced                                   : Yes

Text #2
ID                                       : 5
Format                                   : PGS
Muxing mode                              : zlib
Codec ID                                 : S_HDMV/PGS
Codec ID/Info                            : Picture based subtitle format used on BDs/HD-DVDs
Duration                                 : 2 h 10 min
Bit rate                                 : 3 503 b/s
Count of elements                        : 1334
Stream size                              : 3.27 MiB (0%)
Title                                    : English
Language                                 : English
Default                                  : No
Forced                                   : No

Menu
00:00:00.000                             : en:00:00:00.000
00:11:50.835                             : en:00:11:50.835
00:22:06.825                             : en:00:22:06.825
00:34:21.685                             : en:00:34:21.685
00:44:29.625                             : en:00:44:29.625
00:55:30.744                             : en:00:55:30.744
01:02:31.706                             : en:01:02:31.706
01:15:54.383                             : en:01:15:54.383
01:26:27.766                             : en:01:26:27.766
01:38:00.625                             : en:01:38:00.625
01:52:07.888                             : en:01:52:07.888
01:59:22.322                             : en:01:59:22.322






eb2717df121a7a64513379eb5588e3df.zip (45.61 KB)

回复

使用道具 举报

百度云电影论坛 ( 辽ICP备17019482号-3 )

本网站所有资源来自网络,如无意中侵犯了您的权益,请发邮件至 [email protected],立即清除相关链接

GMT+8, 2020-10-29 03:41 , Processed in 0.093625 second(s), 22 queries .

Powered by Discuz! X3.2

© 2001-2013 Comsenz Inc.

快速回复 返回顶部 返回列表