百度云电影论坛

 找回密码
 立即注册

维塔利娜·瓦雷拉 Vitalina.Varela.2019.720p.BluRay.x264-SCARE 2.99GB

[复制链接]

百度云电影 发表于 2020-10-8 20:09:31 | 显示全部楼层 |阅读模式

帖子完整标题:维塔利娜·瓦雷拉 Vitalina.Varela.2019.720p.BluRay.x264-SCARE 2.99GB





◎译  名 维塔利娜·瓦雷拉/As filhas do Fogo/The Daughters of Fire/暗光疏影留不住(港)/梦回里斯本(台)/火焰的女儿
◎片  名 Vitalina Varela
◎年  代 2019
◎产  地 葡萄牙
◎类  别 剧情
◎语  言 葡萄牙语
◎上映日期 2019-08-14(洛迦诺电影节) / 2019-10-31(葡萄牙)
◎IMDb评分  7/10 from 1013 users
◎片  长 124分钟
◎导  演 佩德罗·科斯塔 Pedro Costa
◎编  剧 佩德罗·科斯塔 Pedro Costa / 维塔利娜·瓦雷拉 Vitalina Varela
◎主  演 维塔利娜·瓦雷拉 Vitalina Varela
       文图拉 Ventura
       曼努埃尔·塔瓦雷斯·阿尔梅达 Manuel Tavares Almeida
       弗朗西斯科·布里托 Francisco Brito
       玛丽娜·阿尔维斯·多明格斯 Marina Alves Domingues
       蒙泰罗·伊米迪奥 Imídio Monteiro

◎标  签 葡萄牙 | 2019 | 剧情 | 社会 | 文艺 | 女性 | 移民 | 家庭

◎简  介

  薇塔莉娜经过漫长的等待,总算盼到一张从非洲维德角到里斯本的机票,然而迎接她的并非丈夫允诺的美好未来,而是天人永隔的哀伤,以及迷雾般的身后事。两人上次见面已经是多年前,期间渺无音讯,谣言说丈夫卷入了肮脏阴暗的利益纠纷,却没人知道他究竟发生了什么事。伤心的薇塔莉娜寡居在丈夫生前的幽窄小屋中,独自在暗夜的巷弄间徘徊,循着渺茫的线索踽踽前行,在梦回时分熬过那一个个痛苦孤绝的夜晚,探向晦暗未明阴影后的救赎。

◎获奖情况

  第72届洛迦诺国际电影节 ?(2019)
  金豹奖 佩德罗·科斯塔
  最佳女演员 维塔利娜·瓦雷拉
Video
ID                                       : 1
Format                                   : AVC
Format/Info                              : Advanced Video Codec
Format settings                          : CABAC / 12 Ref Frames
Format settings, CABAC                   : Yes
Format settings, Reference frames        : 12 frames
Codec ID                                 : V_MPEG4/ISO/AVC
Duration                                 : 2 h 4 min
Bit rate                                 : 2 793 kb/s
Width                                    : 960 pixels
Height                                   : 720 pixels
Display aspect ratio                     : 4:3
Frame rate mode                          : Constant
Frame rate                               : 25.000 FPS
Color space                              : YUV
Chroma subsampling                       : 4:2:0
Bit depth                                : 8 bits
Scan type                                : Progressive
Bits/(Pixel*Frame)                       : 0.162
Stream size                              : 2.43 GiB (81%)
Writing library                          : x264 core 161 r3018 db0d417
Encoding settings                        : cabac=1 / ref=12 / deblock=1:-3:-3 / analyse=0x3:0x133 / me=umh / subme=10 / psy=1 / psy_rd=1.20:0.00 / mixed_ref=1 / me_range=24 / chroma_me=1 / trellis=2 / 8x8dct=1 / cqm=0 / deadzone=21,11 / fast_pskip=0 / chroma_qp_offset=-2 / threads=22 / lookahead_threads=3 / sliced_threads=0 / nr=0 / decimate=0 / interlaced=0 / bluray_compat=0 / constrained_intra=0 / bframes=8 / b_pyramid=2 / b_adapt=2 / b_bias=0 / direct=3 / weightb=1 / open_gop=0 / weightp=2 / keyint=250 / keyint_min=25 / scenecut=40 / intra_refresh=0 / rc=crf / mbtree=0 / crf=16.0 / qcomp=0.60 / qpmin=0 / qpmax=69 / qpstep=4 / ip_ratio=1.40 / pb_ratio=1.30 / aq=3:0.90
Default                                  : Yes
Forced                                   : No
Color range                              : Limited
Matrix coefficients                      : BT.709

Audio
ID                                       : 2
Format                                   : AC-3
Format/Info                              : Audio Coding 3
Commercial name                          : Dolby Digital
Codec ID                                 : A_AC3
Duration                                 : 2 h 4 min
Bit rate mode                            : Constant
Bit rate                                 : 640 kb/s
Channel(s)                               : 6 channels
Channel layout                           : L R C LFE Ls Rs
Sampling rate                            : 48.0 kHz
Frame rate                               : 31.250 FPS (1536 SPF)
Compression mode                         : Lossy
Stream size                              : 570 MiB (19%)
Language                                 : Portuguese
Service kind                             : Complete Main
Default                                  : Yes
Forced                                   : No

Text #1
ID                                       : 3
Format                                   : UTF-8
Codec ID                                 : S_TEXT/UTF8
Codec ID/Info                            : UTF-8 Plain Text
Duration                                 : 1 h 47 min
Bit rate                                 : 16 b/s
Count of elements                        : 416
Stream size                              : 12.8 KiB (0%)
Title                                    : English (Forced)
Language                                 : English
Default                                  : Yes
Forced                                   : Yes

Text #2
ID                                       : 4
Format                                   : PGS
Muxing mode                              : zlib
Codec ID                                 : S_HDMV/PGS
Codec ID/Info                            : Picture based subtitle format used on BDs/HD-DVDs
Duration                                 : 1 h 47 min
Bit rate                                 : 8 485 b/s
Count of elements                        : 832
Stream size                              : 6.55 MiB (0%)
Language                                 : English
Default                                  : No
Forced                                   : No

Text #3
ID                                       : 5
Format                                   : PGS
Muxing mode                              : zlib
Codec ID                                 : S_HDMV/PGS
Codec ID/Info                            : Picture based subtitle format used on BDs/HD-DVDs
Duration                                 : 1 h 47 min
Bit rate                                 : 8 890 b/s
Count of elements                        : 832
Stream size                              : 6.87 MiB (0%)
Language                                 : Portuguese
Default                                  : No
Forced                                   : No

Menu
00:00:00.000                             : en:Chapter 01
00:07:21.720                             : en:Chapter 02
00:13:23.960                             : en:Chapter 03
00:26:26.360                             : en:Chapter 04
00:38:08.240                             : en:Chapter 05
00:50:30.200                             : en:Chapter 06
01:00:23.360                             : en:Chapter 07
01:11:27.160                             : en:Chapter 08
01:24:34.360                             : en:Chapter 09
01:41:05.640                             : en:Chapter 10
01:48:21.160                             : en:Chapter 11
01:55:06.160                             : en:Chapter 12





                                                                                                                                                                                                        
                                                                                                                                                                                                                                          
cad622f36097ece714f82f5ec36ec09c.zip (31.4 KB)

回复

使用道具 举报

百度云电影论坛 ( 辽ICP备17019482号-3 )

本网站所有资源来自网络,如无意中侵犯了您的权益,请发邮件至 [email protected],立即清除相关链接

GMT+8, 2020-10-23 01:58 , Processed in 0.091499 second(s), 22 queries .

Powered by Discuz! X3.2

© 2001-2013 Comsenz Inc.

快速回复 返回顶部 返回列表