百度云电影论坛

 找回密码
 立即注册

食人鱼3DD/3D食人鱼2:全面猎杀 Piranha.3DD.2012.LIMITED.1080p.BluRay....

[复制链接]

百度云电影 发表于 2020-8-20 09:56:37 | 显示全部楼层 |阅读模式

帖子完整标题:食人鱼3DD/3D食人鱼2:全面猎杀 Piranha.3DD.2012.LIMITED.1080p.BluRay.x264-PSYCHD 6.55GB





◎译  名 食人鱼3DD / 3D食人鱼2:全面猎杀(台) / 变种食人鲳3DD 祼命水世界(港) / 食人鱼2 / 食人鱼3D续集
◎片  名 Piranha 3DD
◎年  代 2012
◎产  地 美国
◎类  别 喜剧 / 惊悚 / 恐怖 / 灾难
◎语  言 英语
◎上映日期 2012-06-01(美国)
◎IMDb评分  3.7/10 from 39181 users
◎片  长 83分钟
◎导  演 John Gulager
◎编  剧 马库斯·邓斯坦 Marcus Dunstan / 帕特里克·梅尔顿 Patrick Melton
◎主  演 丹妮尔·帕娜贝克 Danielle Panabaker
       Matt Bush
       Chris Zylka
       大卫·科恩查内 David Koechner
       Meagan Tandy
       Paul James Jordan
       让-卢克·比洛多 Jean-Luc Bilodeau
       赫克特·吉门雷兹 Héctor Jiménez
       Adrian Martinez
       克鲁·古拉格 Clu Gulager
       大卫·哈塞尔霍夫 David Hasselhoff


◎标  签 血腥 | 美国 | 惊悚 | 恐怖 | 食人鱼3D | 2012 | 美国电影 | 喜剧

◎简  介   

  前一波的食人鱼攻击终于画上了终点,此时,科学家们惊恐的发现,搅得人们天翻地覆的食人鱼居然还是处在初级形态的幼崽,天知道等到它们长大之时,又会闹出什么乱子!
  上一次的惨剧给谢尔比(丹妮尔·帕娜贝克 Danielle Panabaker 饰)的心里留下了深深的阴影,当她得知叔叔要在某处建立大型的豪华水上乐园时,谢尔比感到了强烈的不安。果不其然,不靠谱的叔叔为了节省经费,直接引入了附近的湖水,就这样,一大波食人鱼也随之而来,对于它们来说,一场饕餮大餐即将开席。面对着惨叫哭号的人们,谢尔比内心强烈的正义感让她无法对此坐视不管,勇敢的她连同幸存的伙伴们展开了轰轰烈烈的救援活动。

◎获奖情况  

  第33届金酸莓奖(2013)
  最差男配角(提名) 大卫·哈塞尔霍夫
  最差前传、重拍、恶搞及续集电影(提名)
Video
ID                                       : 1
Format                                   : AVC
Format/Info                              : Advanced Video Codec
Format settings                          : CABAC / 4 Ref Frames
Format settings, CABAC                   : Yes
Format settings, Reference frames        : 4 frames
Codec ID                                 : V_MPEG4/ISO/AVC
Duration                                 : 1 h 22 min
Bit rate                                 : 9 842 kb/s
Width                                    : 1 920 pixels
Height                                   : 1 080 pixels
Display aspect ratio                     : 16:9
Frame rate mode                          : Constant
Frame rate                               : 23.976 (24000/1001/189150) FPS
Color space                              : YUV
Chroma subsampling                       : 4:2:0
Bit depth                                : 8 bits
Scan type                                : Progressive
Bits/(Pixel*Frame)                       : 0.198
Stream size                              : 5.55 GiB (85%)
Writing library                          : x264 core 125 r2208 d9d2288
Encoding settings                        : cabac=1 / ref=4 / deblock=1:0:0 / analyse=0x3:0x113 / me=umh / subme=8 / psy=1 / psy_rd=1.00:0.00 / mixed_ref=1 / me_range=16 / chroma_me=1 / trellis=1 / 8x8dct=1 / cqm=0 / deadzone=21,11 / fast_pskip=1 / chroma_qp_offset=-2 / threads=12 / lookahead_threads=2 / sliced_threads=0 / nr=0 / decimate=1 / interlaced=0 / bluray_compat=0 / constrained_intra=0 / bframes=3 / b_pyramid=2 / b_adapt=2 / b_bias=0 / direct=3 / weightb=1 / open_gop=0 / weightp=2 / keyint=240 / keyint_min=24 / scenecut=40 / intra_refresh=0 / rc_lookahead=50 / rc=2pass / mbtree=1 / bitrate=9842 / ratetol=1.0 / qcomp=0.60 / qpmin=0 / qpmax=69 / qpstep=4 / cplxblur=20.0 / qblur=0.5 / ip_ratio=1.40 / aq=1:1.00
Language                                 : English
Default                                  : Yes
Forced                                   : No

Audio
ID                                       : 2
Format                                   : DTS
Format/Info                              : Digital Theater Systems
Codec ID                                 : A_DTS
Duration                                 : 1 h 22 min
Bit rate mode                            : Constant
Bit rate                                 : 1 509 kb/s
Channel(s)                               : 6 channels
Channel layout                           : C L R Ls Rs LFE
Sampling rate                            : 48.0 kHz
Frame rate                               : 93.750 FPS (512 SPF)
Bit depth                                : 24 bits
Compression mode                         : Lossy
Stream size                              : 893 MiB (13%)
Language                                 : English
Default                                  : Yes
Forced                                   : No

Text
ID                                       : 3
Format                                   : UTF-8
Codec ID                                 : S_TEXT/UTF8
Codec ID/Info                            : UTF-8 Plain Text
Language                                 : English
Default                                  : No
Forced                                   : No

Menu
00:00:00.000                             : en:00:00:00.000
00:06:20.880                             : en:00:06:20.880
00:11:47.874                             : en:00:11:47.874
00:14:14.062                             : en:00:14:14.062
00:18:44.332                             : en:00:18:44.332
00:21:37.546                             : en:00:21:37.546
00:25:05.045                             : en:00:25:05.045
00:31:39.481                             : en:00:31:39.481
00:36:03.870                             : en:00:36:03.870
00:41:50.341                             : en:00:41:50.341
00:45:10.124                             : en:00:45:10.124
00:51:20.911                             : en:00:51:20.911
00:57:03.253                             : en:00:57:03.253
01:00:12.692                             : en:01:00:12.692
01:05:28.424                             : en:01:05:28.424
01:10:43.406                             : en:01:10:43.406







12da9d16b5e7f94c469cc3e05585aa09.zip (67 KB)

回复

使用道具 举报

百度云电影论坛 ( 辽ICP备17019482号-3 )

本网站所有资源来自网络,如无意中侵犯了您的权益,请发邮件至 [email protected],立即清除相关链接

GMT+8, 2020-10-30 04:27 , Processed in 0.101097 second(s), 22 queries .

Powered by Discuz! X3.2

© 2001-2013 Comsenz Inc.

快速回复 返回顶部 返回列表