百度云电影论坛

 找回密码
 立即注册

星球大战9:天行者崛起 Star.Wars.Episode.IX.The.Rise.of.Skywalker.2019...

[复制链接]

百度云电影 发表于 2020-4-27 09:12:47 | 显示全部楼层 |阅读模式
帖子完整标题:星球大战9:天行者崛起 Star.Wars.Episode.IX.The.Rise.of.Skywalker.2019.3D.1080p.BluRay.x264-GUACAMOLE 19.55GB





◎译  名 星球大战9:天行者崛起 / Star Wars 9 / Star Wars: Episode IX / 星战9 / 星球大战9
◎片  名 Star Wars: The Rise of Skywalker
◎年  代 2019
◎产  地 美国
◎类  别 动作 / 科幻 / 冒险
◎语  言 英语
◎上映日期 2019-12-18(中国大陆) / 2019-12-20(美国)
◎IMDb评分  6.7/10 from 298838 users
◎片  长 142分钟
◎导  演 J·J·艾布拉姆斯 J.J. Abrams
◎编  剧 J·J·艾布拉姆斯 J.J. Abrams / 克里斯·特里奥 Chris Terrio / 乔治·卢卡斯 George Lucas / 科林·特雷沃罗 Colin Trevorrow / 德里克·康纳利 Derek Connolly
◎主  演 黛西·雷德利 Daisy Ridley
       亚当·德赖弗 Adam Driver
       奥斯卡·伊萨克 Oscar Isaac
       约翰·博耶加 John Boyega
       马克·哈米尔 Mark Hamill
       凯丽·费雪 Carrie Fisher
       比利·迪·威廉姆斯 Billy Dee Williams
       伊恩·麦克迪阿梅德 Ian McDiarmid
       凯丽·拉塞尔 Keri Russell
       哈里森·福特 Harrison Ford
       朱迪·科默 Jodie Comer
       比利·豪尔 Billy Howle
       马特·史密斯 Matt Smith
       露皮塔·尼永奥 Lupita Nyong'o
       多姆纳尔·格里森 Domhnall Gleeson
       凯莉·玛丽·陈 Kelly Marie Tran
       乔纳斯·索塔莫 Joonas Suotamo
       比莉·洛德 Billie Lourd
       安东尼·丹尼尔斯 Anthony Daniels
       娜奥米·阿基 Naomi Ackie
       理查德·E·格兰特 Richard E. Grant
       多米尼克·莫纳汉 Dominic Monaghan
       格雷戈·格伦伯格 Greg Grunberg
       艾德·希兰 Ed Sheeran
       林-曼努尔·米兰达 Lin-Manuel Miranda


◎标  签 星球大战 | 科幻 | 美国 | 2019 | 经典 | 史诗 | 动作 | 冒险

◎简  介  

  本片为2017年电影《星球大战:最后的绝地武士》的续集,“星球大战后传三部曲”的第三部作品,同时是“天行者传奇”的第九部作品以及最终章。在卢克·天行者化为绝地英灵的一年后,残存的抵抗势力将再次面对第一秩序。同时,绝地和西斯之间的大战将天行者的传奇带到最后。

◎获奖情况  

  第92届奥斯卡金像奖(2020)
  最佳视觉效果(提名) 尼尔·斯坎伦 / 帕特里克·图巴赫 / 罗杰·盖耶特 / 多米尼克·多伊
  最佳音效剪辑(提名)
  最佳原创配乐(提名) 约翰·威廉姆斯

  第73届英国电影学院奖(2020)
  电影奖 最佳特殊视觉效果(提名)
  电影奖 最佳原创配乐(提名) 约翰·威廉姆斯
  电影奖 最佳音效(提名)

  第24届美国艺术指导工会奖(2020)
  电影奖 最佳幻想电影艺术指导(提名) 凯文·詹金斯 / 瑞克·卡特

  第22届美国服装设计工会奖(2020)
  科幻/奇幻题材电影最佳服装设计(提名) 迈克尔·卡普兰

  第67届美国音效剪辑协会奖(2020)
  金卷轴奖 最佳电影音效剪辑(提名)

  第18届美国视觉效果协会奖(2020)
  最佳特效电影视觉效果(提名)
  最佳真人电影CG背景(提名)
  最佳真人电影模拟动画效果
  最佳电影视觉效果合成(提名)
Video
ID                                       : 1
Format                                   : AVC
MultiView_Count                          : 2
MultiView_Layout                         : Side by Side (left eye first)
Format settings                          : CABAC / 5 Ref Frames
Format settings, CABAC                   : Yes
Format settings, Reference frames        : 5 frames
Codec ID                                 : V_MPEG4/ISO/AVC
Duration                                 : 2 h 21 min
Bit rate                                 : 14.7 Mb/s
Width                                    : 1 920 pixels
Height                                   : 804 pixels
Display aspect ratio                     : 2.40:1
Frame rate mode                          : Constant
Frame rate                               : 23.976 (24000/1001/189150) FPS
Color space                              : YUV
Chroma subsampling                       : 4:2:0
Bit depth                                : 8 bits
Scan type                                : Progressive
Bits/(Pixel*Frame)                       : 0.396
Stream size                              : 14.5 GiB (74%)
Writing library                          : x264 core 160 r3000 33f9e14
Encoding settings                        : cabac=1 / ref=5 / deblock=1:-3:-3 / analyse=0x3:0x133 / me=umh / subme=9 / psy=1 / psy_rd=1.00:0.00 / mixed_ref=1 / me_range=32 / chroma_me=1 / trellis=2 / 8x8dct=1 / cqm=0 / deadzone=21,11 / fast_pskip=0 / chroma_qp_offset=-2 / threads=24 / lookahead_threads=2 / sliced_threads=0 / nr=0 / decimate=1 / interlaced=0 / bluray_compat=0 / constrained_intra=0 / bframes=3 / b_pyramid=2 / b_adapt=2 / b_bias=0 / direct=3 / weightb=1 / open_gop=0 / weightp=2 / keyint=250 / keyint_min=23 / scenecut=40 / intra_refresh=0 / rc=crf / mbtree=0 / crf=17.0 / qcomp=0.60 / qpmin=0 / qpmax=69 / qpstep=4 / ip_ratio=1.40 / pb_ratio=1.30 / aq=3:0.80
Default                                  : Yes
Forced                                   : No
Color range                              : Limited
Matrix coefficients                      : BT.709

Audio
ID                                       : 2
Format                                   : DTS XLL
Format/Info                              : Digital Theater Systems
Commercial name                          : DTS-HD Master Audio
Codec ID                                 : A_DTS
Duration                                 : 2 h 21 min
Bit rate mode                            : Variable
Bit rate                                 : 4 997 kb/s
Channel(s)                               : 8 channels
Channel layout                           : C L R LFE Lb Rb Lss Rss
Sampling rate                            : 48.0 kHz
Frame rate                               : 93.750 FPS (512 SPF)
Bit depth                                : 24 bits
Compression mode                         : Lossless
Stream size                              : 4.95 GiB (25%)
Language                                 : English
Default                                  : Yes
Forced                                   : No

Text #1
ID                                       : 3
Format                                   : PGS
Muxing mode                              : zlib
Codec ID                                 : S_HDMV/PGS
Codec ID/Info                            : Picture based subtitle format used on BDs/HD-DVDs
Duration                                 : 1 s 585 ms
Bit rate                                 : 127 kb/s
Count of elements                        : 2
Stream size                              : 24.5 KiB (0%)
Title                                    : Forced
Language                                 : English
Default                                  : Yes
Forced                                   : Yes

Text #2
ID                                       : 4
Format                                   : PGS
Muxing mode                              : zlib
Codec ID                                 : S_HDMV/PGS
Codec ID/Info                            : Picture based subtitle format used on BDs/HD-DVDs
Duration                                 : 2 h 11 min
Bit rate                                 : 51.2 kb/s
Count of elements                        : 3790
Stream size                              : 48.3 MiB (0%)
Title                                    : SDH
Language                                 : English
Default                                  : No
Forced                                   : No

Text #3
ID                                       : 5
Format                                   : PGS
Muxing mode                              : zlib
Codec ID                                 : S_HDMV/PGS
Codec ID/Info                            : Picture based subtitle format used on BDs/HD-DVDs
Duration                                 : 2 h 21 min
Bit rate                                 : 34.7 kb/s
Count of elements                        : 2920
Stream size                              : 35.0 MiB (0%)
Title                                    : SDH
Language                                 : German
Default                                  : No
Forced                                   : No

Text #4
ID                                       : 6
Format                                   : PGS
Codec ID                                 : S_HDMV/PGS
Codec ID/Info                            : Picture based subtitle format used on BDs/HD-DVDs
Duration                                 : 2 h 21 min
Bit rate                                 : 35.1 kb/s
Count of elements                        : 2896
Stream size                              : 35.4 MiB (0%)
Title                                    : SDH
Language                                 : Italian
Default                                  : No
Forced                                   : No

Menu
00:00:00.000                             : :Kapitel 01
00:00:09.175                             : :Kapitel 02
00:01:40.934                             : :Kapitel 03
00:03:47.810                             : :Kapitel 04
00:06:42.902                             : :Kapitel 05
00:08:26.672                             : :Kapitel 06
00:10:04.895                             : :Kapitel 07
00:12:48.142                             : :Kapitel 08
00:13:53.999                             : :Kapitel 09
00:15:17.416                             : :Kapitel 10
00:17:13.198                             : :Kapitel 11
00:19:25.038                             : :Kapitel 12
00:21:28.578                             : :Kapitel 13
00:25:27.692                             : :Kapitel 14
00:27:14.883                             : :Kapitel 15
00:30:41.548                             : :Kapitel 16
00:35:49.063                             : :Kapitel 17
00:41:37.745                             : :Kapitel 18
00:43:15.259                             : :Kapitel 19
00:45:28.350                             : :Kapitel 20
00:48:24.568                             : :Kapitel 21
00:54:37.565                             : :Kapitel 22
00:58:49.192                             : :Kapitel 23
01:02:54.770                             : :Kapitel 24
01:06:23.104                             : :Kapitel 25
01:09:54.607                             : :Kapitel 26
01:13:07.382                             : :Kapitel 27
01:18:23.615                             : :Kapitel 28
01:23:41.224                             : :Kapitel 29
01:27:02.884                             : :Kapitel 30
01:30:23.126                             : :Kapitel 31
01:35:00.820                             : :Kapitel 32
01:38:47.880                             : :Kapitel 33
01:40:35.863                             : :Kapitel 34
01:43:03.135                             : :Kapitel 35
01:45:27.863                             : :Kapitel 36
01:48:48.188                             : :Kapitel 37
01:53:27.634                             : :Kapitel 38
01:55:30.757                             : :Kapitel 39
01:59:02.969                             : :Kapitel 40
02:01:37.748                             : :Kapitel 41
02:05:20.429                             : :Kapitel 42
02:09:42.691                             : :Kapitel 43
02:12:25.896                             : :Kapitel 44




                                                                                                                                                                                                        
                                                                                                                                                                                                                                                                                                                                                                                                                                                                                                                                                                                                                                                                                                                                                                                                                                                      
786c88597f8b43d027a2b22891a1bcfe.torrent (98.37 KB)

回复

使用道具 举报

百度云电影论坛 ( 辽ICP备17019482号-3 )

本网站所有资源来自网络,如无意中侵犯了您的权益,请发邮件至 [email protected],立即清除相关链接

GMT+8, 2020-10-22 16:35 , Processed in 0.096442 second(s), 22 queries .

Powered by Discuz! X3.2

© 2001-2013 Comsenz Inc.

快速回复 返回顶部 返回列表