百度云电影论坛

 找回密码
 立即注册

星球大战9:天行者崛起 Star.Wars.Episode.IX.The.Rise.of.Skywalker.2019...

[复制链接]

百度云电影 发表于 2020-4-24 09:14:12 | 显示全部楼层 |阅读模式
子完整标题:星球大战9:天行者崛起 Star.Wars.Episode.IX.The.Rise.of.Skywalker.2019.1080p.3D.BluRay.Half-OU.x264.TrueHD.7.1.Atmos-FGT 23.52GB





◎译  名 星球大战9:天行者崛起 / Star Wars 9 / Star Wars: Episode IX / 星战9 / 星球大战9
◎片  名 Star Wars: The Rise of Skywalker
◎年  代 2019
◎产  地 美国
◎类  别 动作 / 科幻 / 冒险
◎语  言 英语
◎上映日期 2019-12-18(中国大陆) / 2019-12-20(美国)
◎IMDb评分  6.7/10 from 298838 users
◎片  长 142分钟
◎导  演 J·J·艾布拉姆斯 J.J. Abrams
◎编  剧 J·J·艾布拉姆斯 J.J. Abrams / 克里斯·特里奥 Chris Terrio / 乔治·卢卡斯 George Lucas / 科林·特雷沃罗 Colin Trevorrow / 德里克·康纳利 Derek Connolly
◎主  演 黛西·雷德利 Daisy Ridley
       亚当·德赖弗 Adam Driver
       奥斯卡·伊萨克 Oscar Isaac
       约翰·博耶加 John Boyega
       马克·哈米尔 Mark Hamill
       凯丽·费雪 Carrie Fisher
       比利·迪·威廉姆斯 Billy Dee Williams
       伊恩·麦克迪阿梅德 Ian McDiarmid
       凯丽·拉塞尔 Keri Russell
       哈里森·福特 Harrison Ford
       朱迪·科默 Jodie Comer
       比利·豪尔 Billy Howle
       马特·史密斯 Matt Smith
       露皮塔·尼永奥 Lupita Nyong'o
       多姆纳尔·格里森 Domhnall Gleeson
       凯莉·玛丽·陈 Kelly Marie Tran
       乔纳斯·索塔莫 Joonas Suotamo
       比莉·洛德 Billie Lourd
       安东尼·丹尼尔斯 Anthony Daniels
       娜奥米·阿基 Naomi Ackie
       理查德·E·格兰特 Richard E. Grant
       多米尼克·莫纳汉 Dominic Monaghan
       格雷戈·格伦伯格 Greg Grunberg
       艾德·希兰 Ed Sheeran
       林-曼努尔·米兰达 Lin-Manuel Miranda


◎标  签 星球大战 | 科幻 | 美国 | 2019 | 经典 | 史诗 | 动作 | 冒险

◎简  介  

  本片为2017年电影《星球大战:最后的绝地武士》的续集,“星球大战后传三部曲”的第三部作品,同时是“天行者传奇”的第九部作品以及最终章。在卢克·天行者化为绝地英灵的一年后,残存的抵抗势力将再次面对第一秩序。同时,绝地和西斯之间的大战将天行者的传奇带到最后。

◎获奖情况  

  第92届奥斯卡金像奖(2020)
  最佳视觉效果(提名) 尼尔·斯坎伦 / 帕特里克·图巴赫 / 罗杰·盖耶特 / 多米尼克·多伊
  最佳音效剪辑(提名)
  最佳原创配乐(提名) 约翰·威廉姆斯

  第73届英国电影学院奖(2020)
  电影奖 最佳特殊视觉效果(提名)
  电影奖 最佳原创配乐(提名) 约翰·威廉姆斯
  电影奖 最佳音效(提名)

  第24届美国艺术指导工会奖(2020)
  电影奖 最佳幻想电影艺术指导(提名) 凯文·詹金斯 / 瑞克·卡特

  第22届美国服装设计工会奖(2020)
  科幻/奇幻题材电影最佳服装设计(提名) 迈克尔·卡普兰

  第67届美国音效剪辑协会奖(2020)
  金卷轴奖 最佳电影音效剪辑(提名)

  第18届美国视觉效果协会奖(2020)
  最佳特效电影视觉效果(提名)
  最佳真人电影CG背景(提名)
  最佳真人电影模拟动画效果
  最佳电影视觉效果合成(提名)
Video
ID                                       : 1
Format                                   : AVC
Format/Info                              : Advanced Video Codec
Format settings                          : CABAC / 3 Ref Frames
Format settings, CABAC                   : Yes
Format settings, Reference frames        : 3 frames
Codec ID                                 : V_MPEG4/ISO/AVC
Duration                                 : 2 h 21 min
Bit rate                                 : 16.0 Mb/s
Width                                    : 1 920 pixels
Height                                   : 1 080 pixels
Display aspect ratio                     : 16:9
Frame rate mode                          : Constant
Frame rate                               : 23.976 (24000/1001/189150) FPS
Color space                              : YUV
Chroma subsampling                       : 4:2:0
Bit depth                                : 8 bits
Scan type                                : Progressive
Bits/(Pixel*Frame)                       : 0.322
Stream size                              : 15.8 GiB (67%)
Title                                    : Star.Wars.Episode.IX.The.Rise.of.Skywalker.2019.1080p.3D.BluRay.Half-OU.x264.TrueHD.7.1.Atmos-FGT
Writing library                          : x264 core 148
Encoding settings                        : cabac=1 / ref=3 / deblock=1:-1:-1 / analyse=0x3:0 / me=hex / subme=5 / psy=1 / psy_rd=1.00:0.00 / mixed_ref=0 / me_range=16 / chroma_me=1 / trellis=1 / 8x8dct=1 / cqm=0 / deadzone=21,11 / fast_pskip=0 / chroma_qp_offset=0 / threads=24 / lookahead_threads=6 / sliced_threads=0 / nr=0 / decimate=1 / interlaced=0 / bluray_compat=0 / constrained_intra=0 / bframes=2 / b_pyramid=0 / b_adapt=1 / b_bias=0 / direct=1 / weightb=0 / open_gop=0 / weightp=0 / keyint=24 / keyint_min=2 / scenecut=40 / intra_refresh=0 / rc=abr / mbtree=0 / bitrate=16000 / ratetol=1.0 / qcomp=0.60 / qpmin=0 / qpmax=69 / qpstep=4 / ip_ratio=1.40 / pb_ratio=1.30 / aq=1:1.00
Default                                  : Yes
Forced                                   : No
Color range                              : Limited
Color primaries                          : BT.709
Transfer characteristics                 : BT.709
Matrix coefficients                      : BT.709

Audio #1
ID                                       : 2
Format                                   : MLP FBA 16-ch
Format/Info                              : Meridian Lossless Packing FBA with 16-channel presentation
Commercial name                          : Dolby TrueHD with Dolby Atmos
Codec ID                                 : A_TRUEHD
Duration                                 : 2 h 21 min
Bit rate mode                            : Variable
Bit rate                                 : 5 890 kb/s
Maximum bit rate                         : 7 494 kb/s
Channel(s)                               : 8 channels
Channel layout                           : L R C LFE Ls Rs Lb Rb
Sampling rate                            : 48.0 kHz
Frame rate                               : 1 200.000 FPS (40 SPF)
Compression mode                         : Lossless
Stream size                              : 5.84 GiB (25%)
Title                                    : Star.Wars.Episode.IX.The.Rise.of.Skywalker.2019.1080p.3D.BluRay.Half-OU.x264.TrueHD.7.1.Atmos-FGT
Language                                 : English
Default                                  : Yes
Forced                                   : No
Number of dynamic objects                : 13
Bed channel count                        : 1 channel
Bed channel configuration                : LFE

Audio #2
ID                                       : 3
Format                                   : AC-3
Format/Info                              : Audio Coding 3
Commercial name                          : Dolby Digital
Codec ID                                 : A_AC3
Duration                                 : 2 h 21 min
Bit rate mode                            : Constant
Bit rate                                 : 640 kb/s
Channel(s)                               : 6 channels
Channel layout                           : L R C LFE Ls Rs
Sampling rate                            : 48.0 kHz
Frame rate                               : 31.250 FPS (1536 SPF)
Bit depth                                : 16 bits
Compression mode                         : Lossy
Stream size                              : 650 MiB (3%)
Title                                    : Star.Wars.Episode.IX.The.Rise.of.Skywalker.2019.1080p.3D.BluRay.Half-OU.x264.TrueHD.7.1.Atmos-FGT
Language                                 : English
Service kind                             : Complete Main
Default                                  : No
Forced                                   : No

Audio #3
ID                                       : 4
Format                                   : AC-3
Format/Info                              : Audio Coding 3
Commercial name                          : Dolby Digital
Codec ID                                 : A_AC3
Duration                                 : 2 h 21 min
Bit rate mode                            : Constant
Bit rate                                 : 320 kb/s
Channel(s)                               : 2 channels
Channel layout                           : L R
Sampling rate                            : 48.0 kHz
Frame rate                               : 31.250 FPS (1536 SPF)
Bit depth                                : 16 bits
Compression mode                         : Lossy
Stream size                              : 325 MiB (1%)
Title                                    : Star.Wars.Episode.IX.The.Rise.of.Skywalker.2019.1080p.3D.BluRay.Half-OU.x264.TrueHD.7.1.Atmos-FGT
Language                                 : English
Service kind                             : Complete Main
Default                                  : No
Forced                                   : No

Audio #4
ID                                       : 5
Format                                   : E-AC-3
Format/Info                              : Enhanced AC-3
Commercial name                          : Dolby Digital Plus
Format profile                           : Blu-ray Disc
Codec ID                                 : A_EAC3
Duration                                 : 2 h 21 min
Bit rate mode                            : Constant
Bit rate                                 : 896 kb/s
Channel(s)                               : 8 channels
Channel layout                           : L R C LFE Ls Rs Lb Rb
Sampling rate                            : 48.0 kHz
Frame rate                               : 31.250 FPS (1536 SPF)
Compression mode                         : Lossy
Stream size                              : 909 MiB (4%)
Title                                    : Star.Wars.Episode.IX.The.Rise.of.Skywalker.2019.1080p.3D.BluRay.Half-OU.x264.TrueHD.7.1.Atmos-FGT
Language                                 : French
Service kind                             : Complete Main
Default                                  : No
Forced                                   : No

Text #1
ID                                       : 6
Format                                   : PGS
Muxing mode                              : zlib
Codec ID                                 : S_HDMV/PGS
Codec ID/Info                            : Picture based subtitle format used on BDs/HD-DVDs
Duration                                 : 2 h 11 min
Bit rate                                 : 43.8 kb/s
Count of elements                        : 3790
Stream size                              : 41.3 MiB (0%)
Title                                    : English-PGS
Language                                 : English
Default                                  : Yes
Forced                                   : No

Text #2
ID                                       : 7
Format                                   : PGS
Muxing mode                              : zlib
Codec ID                                 : S_HDMV/PGS
Codec ID/Info                            : Picture based subtitle format used on BDs/HD-DVDs
Duration                                 : 2 h 21 min
Bit rate                                 : 27.6 kb/s
Count of elements                        : 2820
Stream size                              : 27.8 MiB (0%)
Title                                    : French-PGS
Language                                 : French
Default                                  : No
Forced                                   : No

Text #3
ID                                       : 8
Format                                   : PGS
Muxing mode                              : zlib
Codec ID                                 : S_HDMV/PGS
Codec ID/Info                            : Picture based subtitle format used on BDs/HD-DVDs
Duration                                 : 2 h 21 min
Bit rate                                 : 29.1 kb/s
Count of elements                        : 2324
Stream size                              : 29.4 MiB (0%)
Title                                    : Dutch-PGS
Language                                 : Dutch
Default                                  : No
Forced                                   : No

Text #4
ID                                       : 9
Format                                   : PGS
Muxing mode                              : zlib
Codec ID                                 : S_HDMV/PGS
Codec ID/Info                            : Picture based subtitle format used on BDs/HD-DVDs
Duration                                 : 1 s 585 ms
Bit rate                                 : 111 kb/s
Count of elements                        : 2
Stream size                              : 21.4 KiB (0%)
Language                                 : English
Default                                  : No
Forced                                   : No

Menu
00:00:00.000                             : en:Chapter 01
00:00:09.009                             : en:Chapter 02
00:01:40.934                             : en:Chapter 03
00:03:47.810                             : en:Chapter 04
00:06:42.944                             : en:Chapter 05
00:08:26.714                             : en:Chapter 06
00:10:04.687                             : en:Chapter 07
00:12:48.142                             : en:Chapter 08
00:13:53.999                             : en:Chapter 09
00:15:17.416                             : en:Chapter 10
00:17:13.157                             : en:Chapter 11
00:19:25.414                             : en:Chapter 12
00:21:28.578                             : en:Chapter 13
00:25:27.692                             : en:Chapter 14
00:27:14.883                             : en:Chapter 15
00:30:41.548                             : en:Chapter 16
00:35:49.230                             : en:Chapter 17
00:41:37.578                             : en:Chapter 18
00:43:15.259                             : en:Chapter 19
00:45:28.350                             : en:Chapter 20
00:48:24.192                             : en:Chapter 21
00:54:37.565                             : en:Chapter 22
00:58:49.192                             : en:Chapter 23
01:02:54.771                             : en:Chapter 24
01:06:22.895                             : en:Chapter 25
01:09:54.607                             : en:Chapter 26
01:13:07.383                             : en:Chapter 27
01:18:23.615                             : en:Chapter 28
01:23:41.224                             : en:Chapter 29
01:27:03.301                             : en:Chapter 30
01:30:23.126                             : en:Chapter 31
01:35:00.820                             : en:Chapter 32
01:38:47.880                             : en:Chapter 33
01:40:36.196                             : en:Chapter 34
01:43:03.135                             : en:Chapter 35
01:45:27.863                             : en:Chapter 36
01:48:48.480                             : en:Chapter 37
01:53:27.634                             : en:Chapter 38
01:55:30.757                             : en:Chapter 39
01:59:02.760                             : en:Chapter 40
02:01:37.748                             : en:Chapter 41
02:05:20.429                             : en:Chapter 42
02:09:43.150                             : en:Chapter 43
02:12:25.896                             : en:Chapter 44




                                                                                                                                                                                                        
                                                                                                                                                                                                                                                                                                                                                                                                                                                                                                                                                                                                                                                                                                                                                                                                                                                      
07d45c17f5bbd69ae5b12a0f077110f7.torrent (59.42 KB)

回复

使用道具 举报

百度云电影论坛 ( 辽ICP备17019482号-3 )

本网站所有资源来自网络,如无意中侵犯了您的权益,请发邮件至 [email protected],立即清除相关链接

GMT+8, 2020-10-30 03:07 , Processed in 0.103812 second(s), 22 queries .

Powered by Discuz! X3.2

© 2001-2013 Comsenz Inc.

快速回复 返回顶部 返回列表