百度云电影论坛

 找回密码
 立即注册

我们在这里:生活在地球上的注意事项 Here.We.Are.Notes.for.Livin...

[复制链接]

百度云电影 发表于 2020-4-19 19:26:17 | 显示全部楼层 |阅读模式
帖子完整标题:我们在这里:生活在地球上的注意事项 Here.We.Are.Notes.for.Living.on.Planet.Earth.2020.2160p.WEB.h265-NiXON 5.34GB





◎译  名 我们在这里:生活在地球上的注意事项
◎片  名 Here We Are: Notes for Living on Planet Earth
◎年  代 2020
◎产  地 美国
◎类  别 动画 / 短片
◎上映日期 2020-04-17(美国)
◎片  长 36分钟
◎导  演 Philip Hunt
◎编  剧 Philip Hunt / 卢克·梅瑟尼 Luke Matheny / 奥利弗·杰弗斯 Oliver Jeffers
◎主  演 梅丽尔·斯特里普 Meryl Streep
       克里斯·奥多德 Chris O'Dowd
       雅各布·特伦布莱 Jacob Tremblay
       鲁丝·内伽 Ruth Negga


◎标  签 动画 | 短片 | 鲁丝·内伽 | 美国电影 | 梅丽尔·斯特里普 | AppleTV

◎简  介  

  梅丽尔·斯特里普、克里斯·奥多德、雅各布·特伦布莱、鲁丝·内伽将为AppleTV+独家制作的地球日动画短片[我们在这里:生活在地球上的注意事项](Here We Are: Notes for Living on Planet Earth,暂译)献声。故事讲述一个早熟的7岁男孩在地球日当天,从他的父母和一个神秘的展览上学到了地球的奇迹。斯特里普担任旁白。这部36分钟的短片根据作家奥利弗·杰弗斯2017年的畅销书改编,由导演菲利普·亨特([阿普克])和Luke Mathen撰写剧本,将于4月17日首播。
Video
ID                                       : 1
Format                                   : HEVC
Format/Info                              : High Efficiency Video Coding
Codec ID                                 : V_MPEGH/ISO/HEVC
Duration                                 : 36 min 4 s
Bit rate                                 : 20.2 Mb/s
Width                                    : 3 840 pixels
Height                                   : 2 160 pixels
Display aspect ratio                     : 16:9
Frame rate mode                          : Constant
Frame rate                               : 23.976 (23976/1000/189150) FPS
Color space                              : YUV
Chroma subsampling                       : 4:2:0
Bit depth                                : 10 bits
Bits/(Pixel*Frame)                       : 0.101
Stream size                              : 5.08 GiB (96%)
Language                                 : English
Default                                  : Yes
Forced                                   : No
Color range                              : Limited
Color primaries                          : BT.709
Transfer characteristics                 : BT.709
Matrix coefficients                      : BT.709

Audio
ID                                       : 2
Format                                   : E-AC-3 JOC
Format/Info                              : Enhanced AC-3 with Joint Object Coding
Commercial name                          : Dolby Digital Plus with Dolby Atmos
Codec ID                                 : A_EAC3
Duration                                 : 36 min 4 s
Bit rate mode                            : Constant
Bit rate                                 : 768 kb/s
Channel(s)                               : 6 channels
Channel layout                           : L R C LFE Ls Rs
Sampling rate                            : 48.0 kHz
Frame rate                               : 31.250 FPS (1536 SPF)
Compression mode                         : Lossy
Stream size                              : 198 MiB (4%)
Language                                 : English
Service kind                             : Complete Main
Default                                  : Yes
Forced                                   : No
Complexity index                         : 16
Number of dynamic objects                : 15
Bed channel count                        : 1 channel
Bed channel configuration                : LFE

Text #1
ID                                       : 3
Format                                   : UTF-8
Codec ID                                 : S_TEXT/UTF8
Codec ID/Info                            : UTF-8 Plain Text
Duration                                 : 35 min 44 s
Bit rate                                 : 77 b/s
Count of elements                        : 486
Stream size                              : 20.4 KiB (0%)
Title                                    : ???????
Language                                 : Arabic
Default                                  : No
Forced                                   : No

Text #2
ID                                       : 4
Format                                   : UTF-8
Codec ID                                 : S_TEXT/UTF8
Codec ID/Info                            : UTF-8 Plain Text
Duration                                 : 35 min 44 s
Bit rate                                 : 79 b/s
Count of elements                        : 487
Stream size                              : 20.8 KiB (0%)
Title                                    : български
Language                                 : Bulgarian
Default                                  : No
Forced                                   : No

Text #3
ID                                       : 5
Format                                   : UTF-8
Codec ID                                 : S_TEXT/UTF8
Codec ID/Info                            : UTF-8 Plain Text
Duration                                 : 35 min 44 s
Bit rate                                 : 49 b/s
Count of elements                        : 490
Stream size                              : 12.9 KiB (0%)
Title                                    : ?e?tina
Language                                 : Czech
Default                                  : No
Forced                                   : No

Text #4
ID                                       : 6
Format                                   : UTF-8
Codec ID                                 : S_TEXT/UTF8
Codec ID/Info                            : UTF-8 Plain Text
Duration                                 : 35 min 44 s
Bit rate                                 : 48 b/s
Count of elements                        : 491
Stream size                              : 12.8 KiB (0%)
Title                                    : dansk
Language                                 : Danish
Default                                  : No
Forced                                   : No

Text #5
ID                                       : 7
Format                                   : UTF-8
Codec ID                                 : S_TEXT/UTF8
Codec ID/Info                            : UTF-8 Plain Text
Duration                                 : 35 min 45 s
Bit rate                                 : 55 b/s
Count of elements                        : 443
Stream size                              : 14.6 KiB (0%)
Title                                    : Deutsch
Language                                 : German
Default                                  : No
Forced                                   : No

Text #6
ID                                       : 8
Format                                   : UTF-8
Codec ID                                 : S_TEXT/UTF8
Codec ID/Info                            : UTF-8 Plain Text
Duration                                 : 35 min 44 s
Bit rate                                 : 89 b/s
Count of elements                        : 485
Stream size                              : 23.5 KiB (0%)
Title                                    : Ελληνικ?
Language                                 : Greek
Default                                  : No
Forced                                   : No

Text #7
ID                                       : 9
Format                                   : UTF-8
Codec ID                                 : S_TEXT/UTF8
Codec ID/Info                            : UTF-8 Plain Text
Duration                                 : 34 min 15 s
Bit rate                                 : 60 b/s
Count of elements                        : 519
Stream size                              : 15.3 KiB (0%)
Title                                    : English (SDH)
Language                                 : English
Default                                  : No
Forced                                   : No

Text #8
ID                                       : 10
Format                                   : UTF-8
Codec ID                                 : S_TEXT/UTF8
Codec ID/Info                            : UTF-8 Plain Text
Duration                                 : 34 min 15 s
Bit rate                                 : 56 b/s
Count of elements                        : 485
Stream size                              : 14.2 KiB (0%)
Title                                    : English
Language                                 : English
Default                                  : No
Forced                                   : No

Text #9
ID                                       : 11
Format                                   : UTF-8
Codec ID                                 : S_TEXT/UTF8
Codec ID/Info                            : UTF-8 Plain Text
Duration                                 : 35 min 44 s
Bit rate                                 : 55 b/s
Count of elements                        : 476
Stream size                              : 14.6 KiB (0%)
Title                                    : Espa?ol (Latinoamérica)
Language                                 : Spanish
Default                                  : No
Forced                                   : No

Text #10
ID                                       : 12
Format                                   : UTF-8
Codec ID                                 : S_TEXT/UTF8
Codec ID/Info                            : UTF-8 Plain Text
Duration                                 : 35 min 46 s
Bit rate                                 : 58 b/s
Count of elements                        : 491
Stream size                              : 15.3 KiB (0%)
Title                                    : Espa?ol (Espa?a)
Language                                 : Spanish
Default                                  : No
Forced                                   : No

Text #11
ID                                       : 13
Format                                   : UTF-8
Codec ID                                 : S_TEXT/UTF8
Codec ID/Info                            : UTF-8 Plain Text
Duration                                 : 35 min 44 s
Bit rate                                 : 49 b/s
Count of elements                        : 490
Stream size                              : 12.9 KiB (0%)
Title                                    : eesti
Language                                 : Estonian
Default                                  : No
Forced                                   : No

Text #12
ID                                       : 14
Format                                   : UTF-8
Codec ID                                 : S_TEXT/UTF8
Codec ID/Info                            : UTF-8 Plain Text
Duration                                 : 35 min 44 s
Bit rate                                 : 50 b/s
Count of elements                        : 492
Stream size                              : 13.3 KiB (0%)
Title                                    : Suomi
Language                                 : Finnish
Default                                  : No
Forced                                   : No

Text #13
ID                                       : 15
Format                                   : UTF-8
Codec ID                                 : S_TEXT/UTF8
Codec ID/Info                            : UTF-8 Plain Text
Duration                                 : 35 min 42 s
Bit rate                                 : 56 b/s
Count of elements                        : 478
Stream size                              : 14.7 KiB (0%)
Title                                    : Fran?ais (France)
Language                                 : French
Default                                  : No
Forced                                   : No

Text #14
ID                                       : 16
Format                                   : UTF-8
Codec ID                                 : S_TEXT/UTF8
Codec ID/Info                            : UTF-8 Plain Text
Duration                                 : 35 min 44 s
Bit rate                                 : 75 b/s
Count of elements                        : 489
Stream size                              : 19.7 KiB (0%)
Title                                    : ?????
Language                                 : Hebrew
Default                                  : No
Forced                                   : No

Text #15
ID                                       : 17
Format                                   : UTF-8
Codec ID                                 : S_TEXT/UTF8
Codec ID/Info                            : UTF-8 Plain Text
Duration                                 : 35 min 44 s
Bit rate                                 : 143 b/s
Count of elements                        : 492
Stream size                              : 37.4 KiB (0%)
Title                                    : ??????
Language                                 : Hindi
Default                                  : No
Forced                                   : No

Text #16
ID                                       : 18
Format                                   : UTF-8
Codec ID                                 : S_TEXT/UTF8
Codec ID/Info                            : UTF-8 Plain Text
Duration                                 : 35 min 44 s
Bit rate                                 : 57 b/s
Count of elements                        : 492
Stream size                              : 14.9 KiB (0%)
Title                                    : magyar
Language                                 : Hungarian
Default                                  : No
Forced                                   : No

Text #17
ID                                       : 19
Format                                   : UTF-8
Codec ID                                 : S_TEXT/UTF8
Codec ID/Info                            : UTF-8 Plain Text
Duration                                 : 35 min 44 s
Bit rate                                 : 52 b/s
Count of elements                        : 490
Stream size                              : 13.8 KiB (0%)
Title                                    : Bahasa Indonesia
Language                                 : Indonesian
Default                                  : No
Forced                                   : No

Text #18
ID                                       : 20
Format                                   : UTF-8
Codec ID                                 : S_TEXT/UTF8
Codec ID/Info                            : UTF-8 Plain Text
Duration                                 : 35 min 44 s
Bit rate                                 : 55 b/s
Count of elements                        : 476
Stream size                              : 14.6 KiB (0%)
Title                                    : Italiano
Language                                 : Italian
Default                                  : No
Forced                                   : No

Text #19
ID                                       : 21
Format                                   : UTF-8
Codec ID                                 : S_TEXT/UTF8
Codec ID/Info                            : UTF-8 Plain Text
Duration                                 : 35 min 45 s
Bit rate                                 : 52 b/s
Count of elements                        : 452
Stream size                              : 13.6 KiB (0%)
Title                                    : 日本語
Language                                 : Japanese
Default                                  : No
Forced                                   : No

Text #20
ID                                       : 22
Format                                   : UTF-8
Codec ID                                 : S_TEXT/UTF8
Codec ID/Info                            : UTF-8 Plain Text
Duration                                 : 35 min 44 s
Bit rate                                 : 51 b/s
Count of elements                        : 480
Stream size                              : 13.6 KiB (0%)
Title                                    : lietuvi?
Language                                 : Lithuanian
Default                                  : No
Forced                                   : No

Text #21
ID                                       : 23
Format                                   : UTF-8
Codec ID                                 : S_TEXT/UTF8
Codec ID/Info                            : UTF-8 Plain Text
Duration                                 : 35 min 44 s
Bit rate                                 : 52 b/s
Count of elements                        : 485
Stream size                              : 13.8 KiB (0%)
Title                                    : latvie?u
Language                                 : Latvian
Default                                  : No
Forced                                   : No

Text #22
ID                                       : 24
Format                                   : UTF-8
Codec ID                                 : S_TEXT/UTF8
Codec ID/Info                            : UTF-8 Plain Text
Duration                                 : 35 min 44 s
Bit rate                                 : 54 b/s
Count of elements                        : 490
Stream size                              : 14.3 KiB (0%)
Title                                    : Bahasa Melayu
Language                                 : Malay
Default                                  : No
Forced                                   : No

Text #23
ID                                       : 25
Format                                   : UTF-8
Codec ID                                 : S_TEXT/UTF8
Codec ID/Info                            : UTF-8 Plain Text
Duration                                 : 35 min 44 s
Bit rate                                 : 48 b/s
Count of elements                        : 465
Stream size                              : 12.6 KiB (0%)
Title                                    : Nederlands
Language                                 : Dutch
Default                                  : No
Forced                                   : No

Text #24
ID                                       : 26
Format                                   : UTF-8
Codec ID                                 : S_TEXT/UTF8
Codec ID/Info                            : UTF-8 Plain Text
Duration                                 : 35 min 44 s
Bit rate                                 : 53 b/s
Count of elements                        : 492
Stream size                              : 13.9 KiB (0%)
Title                                    : norsk
Language                                 : Norwegian
Default                                  : No
Forced                                   : No

Text #25
ID                                       : 27
Format                                   : UTF-8
Codec ID                                 : S_TEXT/UTF8
Codec ID/Info                            : UTF-8 Plain Text
Duration                                 : 35 min 44 s
Bit rate                                 : 50 b/s
Count of elements                        : 484
Stream size                              : 13.3 KiB (0%)
Title                                    : polski
Language                                 : Polish
Default                                  : No
Forced                                   : No


Text #39
ID                                       : 41
Format                                   : UTF-8
Codec ID                                 : S_TEXT/UTF8
Codec ID/Info                            : UTF-8 Plain Text
Duration                                 : 35 min 44 s
Bit rate                                 : 48 b/s
Count of elements                        : 490
Stream size                              : 12.7 KiB (0%)
Title                                    : 中文(简体)
Language                                 : Chinese
Default                                  : No
Forced                                   : No




                                                                                                                                                                                                        
                                                                                                                                                                                                                                                                                                                                                                                                                                                                                                                                                                                                                                                                                                                                                                                                                                                      
686ab960865d3313d6fa2a70a0811e4c.torrent (27.49 KB)

回复

使用道具 举报

百度云电影论坛 ( 辽ICP备17019482号-3 )

本网站所有资源来自网络,如无意中侵犯了您的权益,请发邮件至 [email protected],立即清除相关链接

GMT+8, 2020-11-1 05:48 , Processed in 0.103127 second(s), 22 queries .

Powered by Discuz! X3.2

© 2001-2013 Comsenz Inc.

快速回复 返回顶部 返回列表