百度云电影论坛

 找回密码
 立即注册

爆裂老兵 VFW.2019.2160p.BluRay.x264.8bit.SDR.DTS-HD.MA.5.1-SWTYBLZ 46.39GB

[复制链接]

百度云电影 发表于 2020-4-7 16:58:17 | 显示全部楼层 |阅读模式
帖子完整标题:爆裂老兵 VFW.2019.2160p.BluRay.x264.8bit.SDR.DTS-HD.MA.5.1-SWTYBLZ 46.39GB





◎译  名 爆裂老兵 / Veterans of Foreign Wars / 海外作战退伍军人 / 美国国外战争退伍军人 / 老兵
◎片  名 V.F.W.
◎年  代 2019
◎产  地 美国
◎类  别 动作 / 恐怖
◎语  言 英语
◎上映日期 2019-09-21(美国)
◎IMDb评分  6.2/10 from 1719 users
◎片  长 92分钟
◎导  演 Joe Begos
◎编  剧 马克斯·布莱利尔 Max Brallier / Matthew McArdle
◎主  演 多拉·马迪森·布鲁格 Dora Madison Burge
       史蒂芬·朗 Stephen Lang
       乔治·温迪特 George Wendt
       威廉姆·赛德勒 William Sadler
       马丁·科夫  Martin Kove
       大卫·帕特里克·凯利 David Patrick Kelly
       谢拉·麦克康米克 Sierra McCormick
       弗雷德·威廉森 Fred Williamson
       汤姆·威廉姆森 Tom Williamson
       Graham Skipper
       Travis Hammer
       Josh Ethier
       Linnea Wilson
       Preston Fassel
       Taylor Harris
       Leon Slaughter


◎标  签 动作 | 血腥 | 美国 | 2019 | 犯罪 | 美国电影 | 恐怖 | cult

◎简  介  

  史蒂芬·朗将主演动作恐怖新片[V.F.W.]。影片被描述为[日落黄沙]和[活死人之夜]的结合体。故事讲述弗雷德和他的战友们必须保护他们当地的VFW基地。一个无辜的青少年将对抗疯狂的毒贩和无情的朋克变种人军队。这将是这些越战老兵们一生中最漫长的夜晚。本片由乔·毕高斯执导,马克斯·布拉利尔、马修·麦卡德尔撰写剧本,将于本月在达拉斯开机。
Video
ID                                       : 1
Format                                   : AVC
Format/Info                              : Advanced Video Codec
Format settings                          : CABAC / 5 Ref Frames
Format settings, CABAC                   : Yes
Format settings, Reference frames        : 5 frames
Codec ID                                 : V_MPEG4/ISO/AVC
Duration                                 : 1 h 31 min
Bit rate                                 : 67.3 Mb/s
Width                                    : 3 840 pixels
Height                                   : 1 608 pixels
Display aspect ratio                     : 2.40:1
Frame rate mode                          : Constant
Frame rate                               : 24.000 FPS
Color space                              : YUV
Chroma subsampling                       : 4:2:0
Bit depth                                : 8 bits
Scan type                                : Progressive
Bits/(Pixel*Frame)                       : 0.454
Stream size                              : 43.1 GiB (93%)
Title                                    : VFW.2019.2160p.BluRay.x264.8bit.SDR.DTS-HD.MA.5.1-SWTYBLZ
Writing library                          : x264 core 157 r2935 545de2f
Encoding settings                        : cabac=1 / ref=5 / deblock=1:-1:-1 / analyse=0x3:0x113 / me=umh / subme=10 / psy=1 / psy_rd=1.00:0.15 / mixed_ref=1 / me_range=48 / chroma_me=1 / trellis=2 / 8x8dct=1 / cqm=0 / deadzone=21,11 / fast_pskip=1 / chroma_qp_offset=-3 / threads=48 / lookahead_threads=4 / sliced_threads=0 / nr=0 / decimate=0 / interlaced=0 / bluray_compat=0 / constrained_intra=0 / bframes=3 / b_pyramid=2 / b_adapt=2 / b_bias=0 / direct=3 / weightb=1 / open_gop=0 / weightp=2 / keyint=250 / keyint_min=23 / scenecut=40 / intra_refresh=0 / rc_lookahead=50 / rc=crf / mbtree=1 / crf=18.0 / qcomp=0.60 / qpmin=0 / qpmax=69 / qpstep=4 / ip_ratio=1.40 / aq=1:1.00
Default                                  : Yes
Forced                                   : No

Audio #1
ID                                       : 2
Format                                   : DTS XLL
Format/Info                              : Digital Theater Systems
Commercial name                          : DTS-HD Master Audio
Codec ID                                 : A_DTS
Duration                                 : 1 h 31 min
Bit rate mode                            : Variable
Bit rate                                 : 4 191 kb/s
Channel(s)                               : 6 channels
Channel layout                           : C L R Ls Rs LFE
Sampling rate                            : 48.0 kHz
Frame rate                               : 93.750 FPS (512 SPF)
Bit depth                                : 24 bits
Compression mode                         : Lossless
Stream size                              : 2.68 GiB (6%)
Title                                    : VFW.2019.2160p.BluRay.x264.8bit.SDR.DTS-HD.MA.5.1-SWTYBLZ
Language                                 : English
Default                                  : Yes
Forced                                   : No

Audio #2
ID                                       : 3
Format                                   : AC-3
Format/Info                              : Audio Coding 3
Commercial name                          : Dolby Digital
Codec ID                                 : A_AC3
Duration                                 : 1 h 31 min
Bit rate mode                            : Constant
Bit rate                                 : 640 kb/s
Channel(s)                               : 6 channels
Channel layout                           : L R C LFE Ls Rs
Sampling rate                            : 48.0 kHz
Frame rate                               : 31.250 FPS (1536 SPF)
Bit depth                                : 16 bits
Compression mode                         : Lossy
Stream size                              : 419 MiB (1%)
Title                                    : VFW.2019.2160p.BluRay.x264.8bit.SDR.DTS-HD.MA.5.1-SWTYBLZ
Language                                 : English
Service kind                             : Complete Main
Default                                  : No
Forced                                   : No

Text #1
ID                                       : 4
Format                                   : UTF-8
Codec ID                                 : S_TEXT/UTF8
Codec ID/Info                            : UTF-8 Plain Text
Duration                                 : 1 h 25 min
Bit rate                                 : 53 b/s
Count of elements                        : 1213
Stream size                              : 33.9 KiB (0%)
Title                                    : English-SRT
Language                                 : English
Default                                  : Yes
Forced                                   : No

Text #2
ID                                       : 5
Format                                   : PGS
Muxing mode                              : zlib
Codec ID                                 : S_HDMV/PGS
Codec ID/Info                            : Picture based subtitle format used on BDs/HD-DVDs
Duration                                 : 1 h 28 min
Bit rate                                 : 26.6 kb/s
Count of elements                        : 2950
Stream size                              : 16.8 MiB (0%)
Title                                    : English-PGS
Language                                 : English
Default                                  : No
Forced                                   : No

Text #3
ID                                       : 6
Format                                   : PGS
Muxing mode                              : zlib
Codec ID                                 : S_HDMV/PGS
Codec ID/Info                            : Picture based subtitle format used on BDs/HD-DVDs
Duration                                 : 1 h 26 min
Bit rate                                 : 21.4 kb/s
Count of elements                        : 2482
Stream size                              : 13.3 MiB (0%)
Title                                    : French-PGS
Language                                 : French
Default                                  : No
Forced                                   : No

Text #4
ID                                       : 7
Format                                   : PGS
Muxing mode                              : zlib
Codec ID                                 : S_HDMV/PGS
Codec ID/Info                            : Picture based subtitle format used on BDs/HD-DVDs
Duration                                 : 1 h 26 min
Bit rate                                 : 20.9 kb/s
Count of elements                        : 2426
Stream size                              : 13.0 MiB (0%)
Title                                    : Spanish-PGS
Language                                 : Spanish
Default                                  : No
Forced                                   : No

Menu
00:00:00.000                             : enucky Day
00:12:05.292                             : en:My Heroes
00:22:05.125                             : en:Call It A Day
00:31:57.417                             : en:Secure The Doors
00:42:59.208                             : en:The Mud
00:53:47.542                             : en:Heavy Stuff, Hard Stuff
01:07:19.625                             : en:Fire It Up!
01:27:39.042                             : en:Credits




                                                                                                                                                                                                        
                                                                                                                                                                                                                                                                                                                                                                                                                                                                                                                                                                                                                                                                                                                                                                                                                                                      
d8541d940cd7ca8092231a7dd63c1bb7.torrent (116.59 KB)

回复

使用道具 举报

百度云电影论坛 ( 辽ICP备17019482号-3 )

本网站所有资源来自网络,如无意中侵犯了您的权益,请发邮件至 [email protected],立即清除相关链接

GMT+8, 2020-11-1 06:32 , Processed in 0.094716 second(s), 22 queries .

Powered by Discuz! X3.2

© 2001-2013 Comsenz Inc.

快速回复 返回顶部 返回列表