百度云电影论坛

 找回密码
 立即注册

分秒之间 The.Second.2018.2160p.WEB.H265-PETRiFiED 9.40GB

[复制链接]

百度云电影 发表于 2020-4-7 16:57:00 | 显示全部楼层 |阅读模式
帖子完整标题:分秒之间 The.Second.2018.2160p.WEB.H265-PETRiFiED 9.40GB





◎译  名 分秒之间
◎片  名 The Second
◎年  代 2018
◎产  地 澳大利亚
◎类  别 悬疑 / 惊悚
◎语  言 英语
◎上映日期 2018-07-05(澳大利亚)
◎IMDb评分  4.8/10 from 252 users
◎导  演 Mairi Cameron
◎编  剧 Stephen A. Lance
◎主  演 瑞切尔·布莱克 Rachael Blake
       苏茜·波特 Susie Porter
       文斯·科洛斯莫 Vince Colosimo
       马丁·萨克斯 Martin Sacks
       苏珊·普赖尔 Susan Prior
       megan dale
       丽莎·凯 Lisa Kay
       greta carew-johns


◎简  介  

  The persona of a celebrated author is threatened when her best friend and muse reveals the dark secret behind her first novel's provenance, igniting an incendiary tale of sex, lies and betrayal.
Video
ID                                       : 1
Format                                   : HEVC
Format/Info                              : High Efficiency Video Coding
Codec ID                                 : V_MPEGH/ISO/HEVC
Duration                                 : 1 h 31 min
Bit rate                                 : 13.9 Mb/s
Width                                    : 3 840 pixels
Height                                   : 1 608 pixels
Display aspect ratio                     : 2.40:1
Frame rate mode                          : Constant
Frame rate                               : 24.000 FPS
Color space                              : YUV
Chroma subsampling                       : 4:2:0
Bit depth                                : 8 bits
Bits/(Pixel*Frame)                       : 0.094
Stream size                              : 8.90 GiB (95%)
Language                                 : English
Default                                  : Yes
Forced                                   : No
Statistics Tags Issue                    : no_variable_data 1970-01-01 00:00:00 / no_variable_data 2010-02-22 21:41:29
FromStats_BitRate                        : 14151208
FromStats_Duration                       : 01:31:55.792000000
FromStats_FrameCount                     : 132379
FromStats_StreamSize                     : 9756890498

Audio
ID                                       : 2
Format                                   : E-AC-3
Format/Info                              : Enhanced AC-3
Commercial name                          : Dolby Digital Plus
Codec ID                                 : A_EAC3
Duration                                 : 1 h 31 min
Bit rate mode                            : Constant
Bit rate                                 : 448 kb/s
Channel(s)                               : 6 channels
Channel layout                           : L R C LFE Ls Rs
Sampling rate                            : 48.0 kHz
Frame rate                               : 31.250 FPS (1536 SPF)
Compression mode                         : Lossy
Stream size                              : 295 MiB (3%)
Language                                 : English
Service kind                             : Complete Main
Default                                  : Yes
Forced                                   : No
Statistics Tags Issue                    : no_variable_data 1970-01-01 00:00:00 / no_variable_data 2010-02-22 21:41:29
FromStats_BitRate                        : 448000
FromStats_Duration                       : 01:31:55.808000000
FromStats_FrameCount                     : 172369
FromStats_StreamSize                     : 308885248

Text
ID                                       : 3
Format                                   : UTF-8
Codec ID                                 : S_TEXT/UTF8
Codec ID/Info                            : UTF-8 Plain Text
Title                                    : English (SDH)
Language                                 : English
Default                                  : No
Forced                                   : No
Statistics Tags Issue                    : no_variable_data 1970-01-01 00:00:00 / no_variable_data 2010-02-22 21:41:29
FromStats_BitRate                        : 46
FromStats_Duration                       : 01:26:38.400000000
FromStats_FrameCount                     : 1052
FromStats_StreamSize                     : 30268




                                                                                                                                                                                                        
                                                                                                                                                                                                                                                                                                                                                                                                                                                                                                                                                                                                                                                                                                                                                                                                                                                      
7dcd22d825f0c435aa02da3a63d9923f.torrent (47.69 KB)

回复

使用道具 举报

百度云电影论坛 ( 辽ICP备17019482号-3 )

本网站所有资源来自网络,如无意中侵犯了您的权益,请发邮件至 [email protected],立即清除相关链接

GMT+8, 2020-10-25 22:29 , Processed in 0.097653 second(s), 22 queries .

Powered by Discuz! X3.2

© 2001-2013 Comsenz Inc.

快速回复 返回顶部 返回列表