百度云电影论坛

 找回密码
 立即注册

1/2的魔法 Onward.2020.2160p.iNTERNAL.HDR.WEB.H265-SECRECY 12.25GB

[复制链接]

百度云电影 发表于 2020-4-7 16:56:18 | 显示全部楼层 |阅读模式
帖子完整标题:1/2的魔法 Onward.2020.2160p.iNTERNAL.HDR.WEB.H265-SECRECY 12.25GB





◎译  名 1 / 2的魔法 / ?的魔法 / 勇往直前 / 向前 / 觅法奇程 / 魔法环游记
◎片  名 Onward
◎年  代 2020
◎产  地 美国
◎类  别 喜剧 / 动画 / 奇幻 / 冒险
◎语  言 英语
◎上映日期 2020-02-21(柏林电影节) / 2020-03-06(美国)
◎片  长 102分钟
◎导  演 丹·斯坎隆 Dan Scanlon
◎编  剧 丹·斯坎隆 Dan Scanlon / 基思·布宁 Keith Bunin
◎主  演 汤姆·赫兰德 Tom Holland
       克里斯·帕拉特 Chris Pratt
       茱莉亚·路易斯-德瑞弗斯 Julia Louis-Dreyfus
       奥克塔维亚·斯宾瑟 Octavia Spencer
       梅尔·罗德里格斯 Mel Rodriguez
       凯尔·柏海莫 Kyle Bornheimer
       丽娜·维特 Lena Waithe
       黄阿丽 Ali Wong
       格蕾·德丽斯勒 Grey DeLisle
       崔茜·尤玛 Tracey Ullman
       维尔摩·瓦尔德拉玛 Wilmer Valderrama
       乔治·普萨拉 George Psarras
       约翰·拉岑贝格 John Ratzenberger


◎标  签 皮克斯 | 动画 | 迪士尼 | 2020 | 美国 | 奇幻 | 魔法 | 魔幻

◎简  介  

  影片设定在一个由精灵、巨魔和灵魂等组成的郊外幻想世界,在那里独角兽在垃圾桶中穿行,像是有着糖果条纹的负鼠。影片提供了一个前提,即魔法是真实的,但它早已被现代技术所遗忘和取代。一对十几岁的兄弟,在他们尚不更事时父亲便已离世,他们决定进入这个幻想世界,与父亲共度最后一个神奇的日子。霍兰德配音弟弟伊安、帕拉特配音聒噪的哥哥、德瑞弗斯配音兄弟二人的母亲、斯宾瑟则会利用其声线的优势。
Video
ID                                       : 1
Format                                   : HEVC
Format/Info                              : High Efficiency Video Coding
HDR format                               : SMPTE ST 2086, HDR10 compatible
Codec ID                                 : V_MPEGH/ISO/HEVC
Duration                                 : 1 h 42 min
Bit rate                                 : 16.3 Mb/s
Width                                    : 3 840 pixels
Height                                   : 2 160 pixels
Display aspect ratio                     : 16:9
Frame rate mode                          : Constant
Frame rate                               : 23.976 (24000/1001/189150) FPS
Color space                              : YUV
Chroma subsampling                       : 4:2:0
Bit depth                                : 10 bits
Bits/(Pixel*Frame)                       : 0.082
Stream size                              : 11.7 GiB (95%)
Default                                  : Yes
Forced                                   : No
Color range                              : Limited
Color primaries                          : BT.2020
Transfer characteristics                 : PQ
Matrix coefficients                      : BT.2020 non-constant
Mastering display color primaries        : BT.2020
Mastering display luminance              : min: 0.0000 cd/m2, max: 1000 cd/m2

Audio
ID                                       : 2
Format                                   : E-AC-3 JOC
Format/Info                              : Enhanced AC-3 with Joint Object Coding
Commercial name                          : Dolby Digital Plus with Dolby Atmos
Codec ID                                 : A_EAC3
Duration                                 : 1 h 42 min
Bit rate mode                            : Constant
Bit rate                                 : 768 kb/s
Channel(s)                               : 6 channels
Channel layout                           : L R C LFE Ls Rs
Sampling rate                            : 48.0 kHz
Frame rate                               : 31.250 FPS (1536 SPF)
Compression mode                         : Lossy
Stream size                              : 562 MiB (4%)
Title                                    : English
Language                                 : English
Service kind                             : Complete Main
Default                                  : Yes
Forced                                   : No
Complexity index                         : 16
Number of dynamic objects                : 15
Bed channel count                        : 1 channel
Bed channel configuration                : LFE

Text #1
ID                                       : 3
Format                                   : UTF-8
Codec ID                                 : S_TEXT/UTF8
Codec ID/Info                            : UTF-8 Plain Text
Duration                                 : 1 h 35 min
Bit rate                                 : 66 b/s
Count of elements                        : 1631
Stream size                              : 46.4 KiB (0%)
Title                                    : English
Language                                 : English
Default                                  : No
Forced                                   : No

Text #2
ID                                       : 4
Format                                   : UTF-8
Codec ID                                 : S_TEXT/UTF8
Codec ID/Info                            : UTF-8 Plain Text
Duration                                 : 1 h 31 min
Bit rate                                 : 65 b/s
Count of elements                        : 1387
Stream size                              : 43.9 KiB (0%)
Title                                    : Latin America Spanish
Language                                 : Spanish
Default                                  : No
Forced                                   : No




                                                                                                                                                                                                        
                                                                                                                                                                                                                                                                                                                                                                                                                                                                                                                                                                                                                                                                                                                                                                                                                                                      
eb5bffc6b95c6a4c29e5fe29d98a9c95.torrent (61.96 KB)

回复

使用道具 举报

百度云电影论坛 ( 辽ICP备17019482号-3 )

本网站所有资源来自网络,如无意中侵犯了您的权益,请发邮件至 [email protected],立即清除相关链接

GMT+8, 2020-11-1 06:16 , Processed in 0.093539 second(s), 22 queries .

Powered by Discuz! X3.2

© 2001-2013 Comsenz Inc.

快速回复 返回顶部 返回列表