百度云电影论坛

 找回密码
 立即注册

大象女王 The.Elephant.Queen.2019.HDR.2160p.WEB.h265-NiXON 16.52GB

[复制链接]

百度云电影 发表于 2020-3-14 20:14:47 | 显示全部楼层 |阅读模式
帖子完整标题:大象女王 The.Elephant.Queen.2019.HDR.2160p.WEB.h265-NiXON 16.52GB





◎译  名 大象女王
◎片  名 The Elephant Queen
◎年  代 2018
◎产  地 英国 / 肯尼亚
◎类  别 纪录片
◎语  言 英语
◎上映日期 2018-09-08(多伦多国际电影节)
◎IMDb评分  8.0/10 from 770 users
◎片  长 96分钟
◎导  演 Mark Deeble / Victoria Stone
◎编  剧 Mark Deeble
◎主  演 切瓦特·埃加福 Chiwetel Ejiofor


◎标  签 纪录片 | 动物 | 自然 | 英国 | 肯尼亚 | 2019 | AppleTV+ | 2018

◎简  介  

  雅典娜是一位母亲,当他们被迫离开他们的水坑时,她会尽她所能保护她的牧群。这一史诗般的旅程,由Chiwetel Ejiofor讲述,带领观众穿越非洲大草原,进入大象家庭的核心。一个关于爱,失去和回家的故事。
Video
ID                                       : 1
Format                                   : HEVC
HDR format                               : SMPTE ST 2086, HDR10 compatible
Codec ID                                 : V_MPEGH/ISO/HEVC
Duration                                 : 1 h 36 min
Bit rate                                 : 23.5 Mb/s
Width                                    : 3 840 pixels
Height                                   : 2 076 pixels
Display aspect ratio                     : 1.85:1
Frame rate mode                          : Constant
Frame rate                               : 23.976 FPS
Color space                              : YUV
Chroma subsampling                       : 4:2:0 (Type 2)
Bit depth                                : 10 bits
Bits/(Pixel*Frame)                       : 0.123
Stream size                              : 15.8 GiB (97%)
Language                                 : English
Default                                  : Yes
Forced                                   : No
Color range                              : Limited
Color primaries                          : BT.2020
Transfer characteristics                 : PQ
Matrix coefficients                      : BT.2020 non-constant
Mastering display color primaries        : BT.2020
Mastering display luminance              : min: 0.0050 cd/m2, max: 1000 cd/m2
Maximum Content Light Level              : 691 cd/m2
Maximum Frame-Average Light Level        : 182 cd/m2

Audio
ID                                       : 2
Format                                   : E-AC-3 JOC
Format/Info                              : Enhanced AC-3 with Joint Object Coding
Commercial name                          : Dolby Digital Plus with Dolby Atmos
Codec ID                                 : A_EAC3
Duration                                 : 1 h 36 min
Bit rate mode                            : Constant
Bit rate                                 : 768 kb/s
Channel(s)                               : 6 channels
Channel layout                           : L R C LFE Ls Rs
Sampling rate                            : 48.0 kHz
Frame rate                               : 31.250 FPS (1536 SPF)
Compression mode                         : Lossy
Stream size                              : 528 MiB (3%)
Language                                 : English
Service kind                             : Complete Main
Default                                  : Yes
Forced                                   : No
Complexity index                         : 16
Number of dynamic objects                : 15
Bed channel count                        : 1 channel
Bed channel configuration                : LFE

Text #1
ID                                       : 3
Format                                   : UTF-8
Codec ID                                 : S_TEXT/UTF8
Codec ID/Info                            : UTF-8 Plain Text
Duration                                 : 1 h 35 min
Bit rate                                 : 45 b/s
Count of elements                        : 454
Stream size                              : 31.8 KiB (0%)
Title                                    : ???????
Language                                 : Arabic
Default                                  : No
Forced                                   : No

Text #2
ID                                       : 4
Format                                   : UTF-8
Codec ID                                 : S_TEXT/UTF8
Codec ID/Info                            : UTF-8 Plain Text
Duration                                 : 1 h 35 min
Bit rate                                 : 43 b/s
Count of elements                        : 454
Stream size                              : 30.5 KiB (0%)
Title                                    : български
Language                                 : Bulgarian
Default                                  : No
Forced                                   : No

Text #3
ID                                       : 5
Format                                   : UTF-8
Codec ID                                 : S_TEXT/UTF8
Codec ID/Info                            : UTF-8 Plain Text
Duration                                 : 1 h 35 min
Bit rate                                 : 26 b/s
Count of elements                        : 452
Stream size                              : 18.4 KiB (0%)
Title                                    : ?e?tina
Language                                 : Czech
Default                                  : No
Forced                                   : No

Text #4
ID                                       : 6
Format                                   : UTF-8
Codec ID                                 : S_TEXT/UTF8
Codec ID/Info                            : UTF-8 Plain Text
Duration                                 : 1 h 35 min
Bit rate                                 : 29 b/s
Count of elements                        : 452
Stream size                              : 20.9 KiB (0%)
Title                                    : dansk
Language                                 : Danish
Default                                  : No
Forced                                   : No

Text #5
ID                                       : 7
Format                                   : UTF-8
Codec ID                                 : S_TEXT/UTF8
Codec ID/Info                            : UTF-8 Plain Text
Duration                                 : 1 h 35 min
Bit rate                                 : 32 b/s
Count of elements                        : 471
Stream size                              : 22.5 KiB (0%)
Title                                    : Deutsch
Language                                 : German
Default                                  : No
Forced                                   : No

Text #6
ID                                       : 8
Format                                   : UTF-8
Codec ID                                 : S_TEXT/UTF8
Codec ID/Info                            : UTF-8 Plain Text
Duration                                 : 1 h 35 min
Bit rate                                 : 51 b/s
Count of elements                        : 454
Stream size                              : 36.0 KiB (0%)
Title                                    : Ελληνικ?
Language                                 : Greek
Default                                  : No
Forced                                   : No


Text #39
ID                                       : 41
Format                                   : UTF-8
Codec ID                                 : S_TEXT/UTF8
Codec ID/Info                            : UTF-8 Plain Text
Duration                                 : 1 h 35 min
Bit rate                                 : 24 b/s
Count of elements                        : 454
Stream size                              : 17.3 KiB (0%)
Title                                    : 廣東話
Language                                 : Chinese
Default                                  : No
Forced                                   : No

Text #40
ID                                       : 42
Format                                   : UTF-8
Codec ID                                 : S_TEXT/UTF8
Codec ID/Info                            : UTF-8 Plain Text
Duration                                 : 1 h 35 min
Bit rate                                 : 26 b/s
Count of elements                        : 454
Stream size                              : 18.8 KiB (0%)
Title                                    : 中文(简体)
Language                                 : Chinese
Default                                  : No
Forced                                   : No

Text #41
ID                                       : 43
Format                                   : UTF-8
Codec ID                                 : S_TEXT/UTF8
Codec ID/Info                            : UTF-8 Plain Text
Duration                                 : 1 h 35 min
Bit rate                                 : 25 b/s
Count of elements                        : 454
Stream size                              : 18.0 KiB (0%)
Title                                    : 中文(繁體)
Language                                 : Chinese
Default                                  : No
Forced                                   : No




                                                                                                                                                                                                        
                                                                                                                                                                                                                                                                                                                                                                                                                                                                                                                                                                                                                                                                                                                                                                                                                                                      
03f5fe68ac567da09e2a5391f52b42d1.torrent (83.31 KB)

回复

使用道具 举报

百度云电影论坛 ( 辽ICP备17019482号-3 )

本网站所有资源来自网络,如无意中侵犯了您的权益,请发邮件至 [email protected],立即清除相关链接

GMT+8, 2020-10-28 01:29 , Processed in 0.091200 second(s), 22 queries .

Powered by Discuz! X3.2

© 2001-2013 Comsenz Inc.

快速回复 返回顶部 返回列表