百度云电影论坛

 找回密码
 立即注册

哈拉/爱由自主 Hala.2019.HDR.2160p.WEB.h265-NiXON 16.39GB

[复制链接]

百度云电影 发表于 2020-3-10 19:55:12 | 显示全部楼层 |阅读模式
子完整标题:哈拉/爱由自主 Hala.2019.HDR.2160p.WEB.h265-NiXON 16.39GB





◎译  名 哈拉 / 爱由自主
◎片  名 Hala
◎年  代 2019
◎产  地 美国
◎类  别 剧情
◎语  言 英语 / 乌尔都语
◎上映日期 2019-01-26(圣丹斯电影节) / 2019-12-06(美国)
◎IMDb评分  5.7/10 from 1047 users
◎片  长 93分钟
◎导  演 Minhal Baig
◎编  剧 Minhal Baig
◎主  演 杰拉尔丁·维斯瓦纳坦 Geraldine Viswanathan
       杰克·基默 Jack Kilmer
       加布里埃尔·鲁纳 Gabriel Luna
       安娜·克拉姆斯基 Anna Chlumsky
       萨姆·史特拉雷 Sam Straley
       Jimmy Chung
       Purbi Joshi
       Azad Khan
       Keith LeCreed Harris
       Taylor Marie Blim
       Celia Skvaril
       Charin Alvarez
       Sonny Bhatt
       Ahmed Lucan
       Alka Nayyar
       Raven Whitley
       Bianca Corral
       Zayna Dib


◎标  签 青春 | 2019 | 美国 | 女性 | 剧情 | 穆斯林 | 美国电影 | AppleTV+

◎简  介  

  Hala是父亲的骄傲,她尽职尽责、有学术天赋,能够巧妙地驾驭她在芝加哥的青少年社交生活、以及作为巴基斯坦移民的独生子女的义务。
  然而随着高中毕业的临近,Hala 遇到了青春期的烦恼。她遇到同班级热情洋溢的滑板男孩 Jesse,但这段浪漫的感情,却因信仰和包办婚姻的传统而变得复杂。
  开始挑战这些习俗,将自己的生活与父母解绑,这无疑是对自身力量与呐喊的一次重大考验。

◎获奖情况  

  第35届圣丹斯电影节(2019)
  评审团大奖 剧情片(提名) 明哈尔·贝格
Video
ID                                       : 1
Format                                   : HEVC
Format/Info                              : High Efficiency Video Coding
Format profile                           : Main 1@High
HDR format                               : SMPTE ST 2086, HDR10 compatible
Codec ID                                 : V_MPEGH/ISO/HEVC
Duration                                 : 1 h 33 min
Bit rate                                 : 24.2 Mb/s
Width                                    : 3 840 pixels
Height                                   : 2 076 pixels
Display aspect ratio                     : 1.85:1
Frame rate mode                          : Constant
Frame rate                               : 23.976 FPS
Color space                              : YUV
Chroma subsampling                       : 4:2:0 (Type 2)
Bit depth                                : 10 bits
Bits/(Pixel*Frame)                       : 0.127
Stream size                              : 15.9 GiB (97%)
Language                                 : English
Default                                  : Yes
Forced                                   : No
Color range                              : Limited
Color primaries                          : BT.2020
Transfer characteristics                 : PQ
Matrix coefficients                      : BT.2020 non-constant
Mastering display color primaries        : Display P3
Mastering display luminance              : min: 0.0050 cd/m2, max: 1000 cd/m2
Maximum Content Light Level              : 1133 cd/m2
Maximum Frame-Average Light Level        : 376 cd/m2

Audio
ID                                       : 2
Format                                   : E-AC-3 JOC
Format/Info                              : Enhanced AC-3 with Joint Object Coding
Commercial name                          : Dolby Digital Plus with Dolby Atmos
Codec ID                                 : A_EAC3
Duration                                 : 1 h 33 min
Bit rate mode                            : Constant
Bit rate                                 : 768 kb/s
Channel(s)                               : 6 channels
Channel layout                           : L R C LFE Ls Rs
Sampling rate                            : 48.0 kHz
Frame rate                               : 31.250 FPS (1536 SPF)
Compression mode                         : Lossy
Stream size                              : 516 MiB (3%)
Language                                 : English
Service kind                             : Complete Main
Default                                  : Yes
Forced                                   : No
Complexity index                         : 16
Number of dynamic objects                : 15
Bed channel count                        : 1 channel
Bed channel configuration                : LFE

Text #1
ID                                       : 3
Format                                   : UTF-8
Codec ID                                 : S_TEXT/UTF8
Codec ID/Info                            : UTF-8 Plain Text
Duration                                 : 1 h 33 min
Bit rate                                 : 57 b/s
Count of elements                        : 942
Stream size                              : 39.2 KiB (0%)
Title                                    : ???????
Language                                 : Arabic
Default                                  : No
Forced                                   : No

Text #2
ID                                       : 4
Format                                   : UTF-8
Codec ID                                 : S_TEXT/UTF8
Codec ID/Info                            : UTF-8 Plain Text
Duration                                 : 1 h 33 min
Bit rate                                 : 61 b/s
Count of elements                        : 900
Stream size                              : 41.9 KiB (0%)
Title                                    : български
Language                                 : Bulgarian
Default                                  : No
Forced                                   : No

Text #3
ID                                       : 5
Format                                   : UTF-8
Codec ID                                 : S_TEXT/UTF8
Codec ID/Info                            : UTF-8 Plain Text
Duration                                 : 1 h 33 min
Bit rate                                 : 39 b/s
Count of elements                        : 934
Stream size                              : 26.9 KiB (0%)
Title                                    : ?e?tina
Language                                 : Czech
Default                                  : No
Forced                                   : No

Text #4
ID                                       : 6
Format                                   : UTF-8
Codec ID                                 : S_TEXT/UTF8
Codec ID/Info                            : UTF-8 Plain Text
Duration                                 : 1 h 33 min
Bit rate                                 : 40 b/s
Count of elements                        : 934
Stream size                              : 27.9 KiB (0%)
Title                                    : dansk
Language                                 : Danish
Default                                  : No
Forced                                   : No

Text #5
ID                                       : 7
Format                                   : UTF-8
Codec ID                                 : S_TEXT/UTF8
Codec ID/Info                            : UTF-8 Plain Text
Duration                                 : 1 h 33 min
Bit rate                                 : 39 b/s
Count of elements                        : 902
Stream size                              : 27.0 KiB (0%)
Title                                    : Deutsch
Language                                 : German
Default                                  : No
Forced                                   : No

Text #6
ID                                       : 8
Format                                   : UTF-8
Codec ID                                 : S_TEXT/UTF8
Codec ID/Info                            : UTF-8 Plain Text
Duration                                 : 1 h 33 min
Bit rate                                 : 69 b/s
Count of elements                        : 942
Stream size                              : 47.1 KiB (0%)
Title                                    : Ελληνικ?
Language                                 : Greek
Default                                  : No
Forced                                   : No

Text #37
ID                                       : 39
Format                                   : UTF-8
Codec ID                                 : S_TEXT/UTF8
Codec ID/Info                            : UTF-8 Plain Text
Duration                                 : 1 h 33 min
Bit rate                                 : 53 b/s
Count of elements                        : 934
Stream size                              : 36.4 KiB (0%)
Title                                    : Ti?ng Vi?t
Language                                 : Vietnamese
Default                                  : No
Forced                                   : No

Text #38
ID                                       : 40
Format                                   : UTF-8
Codec ID                                 : S_TEXT/UTF8
Codec ID/Info                            : UTF-8 Plain Text
Duration                                 : 1 h 33 min
Bit rate                                 : 37 b/s
Count of elements                        : 942
Stream size                              : 25.4 KiB (0%)
Title                                    : 廣東話
Language                                 : Chinese
Default                                  : No
Forced                                   : No

Text #39
ID                                       : 41
Format                                   : UTF-8
Codec ID                                 : S_TEXT/UTF8
Codec ID/Info                            : UTF-8 Plain Text
Duration                                 : 1 h 33 min
Bit rate                                 : 35 b/s
Count of elements                        : 942
Stream size                              : 24.0 KiB (0%)
Title                                    : 中文(繁體)
Language                                 : Chinese
Default                                  : No
Forced                                   : No

Text #40
ID                                       : 42
Format                                   : UTF-8
Codec ID                                 : S_TEXT/UTF8
Codec ID/Info                            : UTF-8 Plain Text
Duration                                 : 1 h 33 min
Bit rate                                 : 36 b/s
Count of elements                        : 941
Stream size                              : 25.1 KiB (0%)
Title                                    : 中文(简体)
Language                                 : Chinese
Default                                  : No
Forced                                   : No




                                                                                                                                                                                                        
                                                                                                                                                                                                                                                                                                                                                                                                                                                                                                                                                                                                                                                                                                                                                                                                                                                      
af63aa4fcf9b9c56ab7d6bea1c344538.torrent (82.44 KB)

回复

使用道具 举报

百度云电影论坛 ( 辽ICP备17019482号-3 )

本网站所有资源来自网络,如无意中侵犯了您的权益,请发邮件至 [email protected],立即清除相关链接

GMT+8, 2020-10-28 01:10 , Processed in 0.097591 second(s), 22 queries .

Powered by Discuz! X3.2

© 2001-2013 Comsenz Inc.

快速回复 返回顶部 返回列表