百度云电影论坛

 找回密码
 立即注册

蜘蛛侠:英雄远征/新蜘蛛侠2 Spider-Man.Far.from.Home.2019.1080p.3D.B...

[复制链接]

百度云电影 发表于 2019-10-4 19:03:14 | 显示全部楼层 |阅读模式




帖子完整标题:蜘蛛侠:英雄远征/新蜘蛛侠2 Spider-Man.Far.from.Home.2019.1080p.3D.BluRay.Half-OU.x264.TrueHD.7.1.Atmos-FGT 20.29GB





◎译  名 蜘蛛侠:英雄远征 / 新蜘蛛侠2 / 蜘蛛侠2 / 蜘蛛侠2:离家出走(豆友译名) / 蜘蛛侠2:英雄离乡 / 蜘蛛侠2:远离家乡 / 蜘蛛侠:决战千里(港) / 蜘蛛侠:归来2 / 蜘蛛侠:离家日(台) / 蜘蛛侠:英雄归来2 / 蜘蛛侠:远离故乡
◎片  名 Spider-Man: Far from Home
◎年  代 2019
◎产  地 美国
◎类  别 动作 / 科幻 / 冒险
◎语  言 英语
◎上映日期 2019-06-28(中国大陆) / 2019-07-02(美国)
◎IMDb评分  7.9/10 from 161425 users
◎片  长 127分钟
◎导  演 乔·沃茨 Jon Watts
◎编  剧 克里斯·麦克纳 Chris McKenna / 埃里克·萨默斯 Erik Sommers / 史蒂夫·迪特寇 Steve Ditko / 斯坦·李 Stan Lee
◎主  演 汤姆·赫兰德 Tom Holland
       赞达亚 Zendaya
       杰克·吉伦哈尔 Jake Gyllenhaal
       寇碧·史莫德斯 Cobie Smulders
       塞缪尔·杰克逊 Samuel L. Jackson
       乔恩·费儒 Jon Favreau
       玛丽莎·托梅 Marisa Tomei
       雅各布·巴特朗 Jacob Batalon
       安格瑞·赖斯 Angourie Rice
       马丁·斯塔尔 Martin Starr
       瑞米·海依 Remy Hii
       纽曼·阿卡 Numan Acar
       托尼·雷沃罗利 Tony Revolori
       J·B·斯穆夫 J.B. Smoove
       赫米基·马德拉 Hemky Madera
       戴维娜·西塔拉姆 Davina Sitaram
       约瑟夫·朗 Joseph Long
       露丝·霍洛克斯 Ruth Horrocks
       哈廷·帕特尔 Hiten Patel
       杰罗恩·凡·康宁斯伯格 Jeroen van Koningsbrugge
       Leonys Delossantos
       查利·蕾娅·埃斯奎尔 Charlie Rhea Esquér
       费斯·洛根 Faith Logan
       J·K·西蒙斯 J.K. Simmons
       小罗伯特·唐尼 Robert Downey Jr.


◎标  签 漫威 | 超级英雄 | 美国 | 科幻 | 2019 | 成长 | 动作 | 漫画改编

◎简  介  

  在复仇者联盟众英雄的努力下,于灭霸无限手套事件中化作为灰烬的人们,重新回到了人世间,曾经消失的蜘蛛侠 彼得帕克 也回归到了普通的生活之中,数月后,蜘蛛侠彼得帕克所在的学校举行了欧洲旅游,帕克也在其中, 在欧州威尼斯旅行时,一个巨大无比的水怪袭击了威尼斯,不敌敌人的蜘蛛侠幸得一位自称神秘客的男子搭救才击退敌人,之后 神盾局局长找上正在旅游的彼得帕克并要求其加入神盾局,并安排神秘客协助帕克,神秘客自称来自其他宇宙,并告知一群名为元素众的邪恶势力已经入侵这个宇宙了,为了守护来之不易的和平,蜘蛛侠决定与神秘客联手,然而在神秘客那头罩之中,似乎隐藏着什么不为人知的真相……

◎获奖情况  

  第5届豆瓣电影年度榜单(2018)
  最值得期待的外语电影(提名)
Video
ID                                       : 1
Format                                   : AVC
Format/Info                              : Advanced Video Codec
Format settings                          : CABAC / 3 Ref Frames
Format settings, CABAC                   : Yes
Format settings, Reference frames        : 3 frames
Codec ID                                 : V_MPEG4/ISO/AVC
Duration                                 : 2 h 9 min
Bit rate                                 : 16.0 Mb/s
Width                                    : 1 920 pixels
Height                                   : 1 080 pixels
Display aspect ratio                     : 16:9
Frame rate mode                          : Constant
Frame rate                               : 23.976 (24000/1001) FPS
Color space                              : YUV
Chroma subsampling                       : 4:2:0
Bit depth                                : 8 bits
Scan type                                : Progressive
Bits/(Pixel*Frame)                       : 0.322
Stream size                              : 14.4 GiB (71%)
Title                                    : Spider.Man.Far.from.Home.2019.1080p.3D.BluRay.Half-OU.x264.TrueHD.7.1.Atmos-FGT
Writing library                          : x264 core 148
Encoding settings                        : cabac=1 / ref=3 / deblock=1:-1:-1 / analyse=0x3:0 / me=hex / subme=5 / psy=1 / psy_rd=1.00:0.00 / mixed_ref=0 / me_range=16 / chroma_me=1 / trellis=1 / 8x8dct=1 / cqm=0 / deadzone=21,11 / fast_pskip=0 / chroma_qp_offset=0 / threads=24 / lookahead_threads=6 / sliced_threads=0 / nr=0 / decimate=1 / interlaced=0 / bluray_compat=0 / constrained_intra=0 / bframes=2 / b_pyramid=0 / b_adapt=1 / b_bias=0 / direct=1 / weightb=0 / open_gop=0 / weightp=0 / keyint=24 / keyint_min=2 / scenecut=40 / intra_refresh=0 / rc=abr / mbtree=0 / bitrate=16000 / ratetol=1.0 / qcomp=0.60 / qpmin=0 / qpmax=69 / qpstep=4 / ip_ratio=1.40 / pb_ratio=1.30 / aq=1:1.00
Default                                  : Yes
Forced                                   : No
Color range                              : Limited
Color primaries                          : BT.709
Transfer characteristics                 : BT.709
Matrix coefficients                      : BT.709

Audio #1
ID                                       : 2
Format                                   : MLP FBA 16-ch
Format/Info                              : Meridian Lossless Packing FBA with 16-channel presentation
Commercial name                          : Dolby TrueHD with Dolby Atmos
Codec ID                                 : A_TRUEHD
Duration                                 : 2 h 9 min
Bit rate mode                            : Variable
Bit rate                                 : 3 077 kb/s
Maximum bit rate                         : 5 397 kb/s
Channel(s)                               : 8 channels
Channel layout                           : L R C LFE Ls Rs Lb Rb
Sampling rate                            : 48.0 kHz
Frame rate                               : 1 200.000 FPS (40 SPF)
Compression mode                         : Lossless
Stream size                              : 2.78 GiB (14%)
Title                                    : Spider.Man.Far.from.Home.2019.1080p.3D.BluRay.Half-OU.x264.TrueHD.7.1.Atmos-FGT
Language                                 : English
Default                                  : Yes
Forced                                   : No
Number of dynamic objects                : 11
Bed channel count                        : 1 channel
Bed channel configuration                : LFE

Audio #2
ID                                       : 3
Format                                   : AC-3
Format/Info                              : Audio Coding 3
Commercial name                          : Dolby Digital
Codec ID                                 : A_AC3
Duration                                 : 2 h 9 min
Bit rate mode                            : Constant
Bit rate                                 : 640 kb/s
Channel(s)                               : 6 channels
Channel layout                           : L R C LFE Ls Rs
Sampling rate                            : 48.0 kHz
Frame rate                               : 31.250 FPS (1536 SPF)
Bit depth                                : 16 bits
Compression mode                         : Lossy
Stream size                              : 592 MiB (3%)
Title                                    : Spider.Man.Far.from.Home.2019.1080p.3D.BluRay.Half-OU.x264.TrueHD.7.1.Atmos-FGT
Language                                 : English
Service kind                             : Complete Main
Default                                  : No
Forced                                   : No

Audio #3
ID                                       : 4
Format                                   : AC-3
Format/Info                              : Audio Coding 3
Commercial name                          : Dolby Digital
Codec ID                                 : A_AC3
Duration                                 : 2 h 9 min
Bit rate mode                            : Constant
Bit rate                                 : 640 kb/s
Channel(s)                               : 6 channels
Channel layout                           : L R C LFE Ls Rs
Sampling rate                            : 48.0 kHz
Frame rate                               : 31.250 FPS (1536 SPF)
Bit depth                                : 16 bits
Compression mode                         : Lossy
Stream size                              : 592 MiB (3%)
Title                                    : Spider.Man.Far.from.Home.2019.1080p.3D.BluRay.Half-OU.x264.TrueHD.7.1.Atmos-FGT
Language                                 : Hindi
Service kind                             : Complete Main
Default                                  : No
Forced                                   : No

Audio #4
ID                                       : 5
Format                                   : AC-3
Format/Info                              : Audio Coding 3
Commercial name                          : Dolby Digital
Codec ID                                 : A_AC3
Duration                                 : 2 h 9 min
Bit rate mode                            : Constant
Bit rate                                 : 640 kb/s
Channel(s)                               : 6 channels
Channel layout                           : L R C LFE Ls Rs
Sampling rate                            : 48.0 kHz
Frame rate                               : 31.250 FPS (1536 SPF)
Bit depth                                : 16 bits
Compression mode                         : Lossy
Stream size                              : 592 MiB (3%)
Title                                    : Spider.Man.Far.from.Home.2019.1080p.3D.BluRay.Half-OU.x264.TrueHD.7.1.Atmos-FGT
Language                                 : Tamil
Service kind                             : Complete Main
Default                                  : No
Forced                                   : No

Audio #5
ID                                       : 6
Format                                   : AC-3
Format/Info                              : Audio Coding 3
Commercial name                          : Dolby Digital
Codec ID                                 : A_AC3
Duration                                 : 2 h 9 min
Bit rate mode                            : Constant
Bit rate                                 : 640 kb/s
Channel(s)                               : 6 channels
Channel layout                           : L R C LFE Ls Rs
Sampling rate                            : 48.0 kHz
Frame rate                               : 31.250 FPS (1536 SPF)
Bit depth                                : 16 bits
Compression mode                         : Lossy
Stream size                              : 592 MiB (3%)
Title                                    : Spider.Man.Far.from.Home.2019.1080p.3D.BluRay.Half-OU.x264.TrueHD.7.1.Atmos-FGT
Language                                 : Telugu
Service kind                             : Complete Main
Default                                  : No
Forced                                   : No

Audio #6
ID                                       : 7
Format                                   : AC-3
Format/Info                              : Audio Coding 3
Commercial name                          : Dolby Digital
Codec ID                                 : A_AC3
Duration                                 : 2 h 9 min
Bit rate mode                            : Constant
Bit rate                                 : 640 kb/s
Channel(s)                               : 6 channels
Channel layout                           : L R C LFE Ls Rs
Sampling rate                            : 48.0 kHz
Frame rate                               : 31.250 FPS (1536 SPF)
Bit depth                                : 16 bits
Compression mode                         : Lossy
Stream size                              : 592 MiB (3%)
Title                                    : Spider.Man.Far.from.Home.2019.1080p.3D.BluRay.Half-OU.x264.TrueHD.7.1.Atmos-FGT
Language                                 : Thai
Service kind                             : Complete Main
Default                                  : No
Forced                                   : No

Text #1
ID                                       : 8
Format                                   : PGS
Muxing mode                              : zlib
Codec ID                                 : S_HDMV/PGS
Codec ID/Info                            : Picture based subtitle format used on BDs/HD-DVDs
Duration                                 : 2 h 7 min
Bit rate                                 : 45.5 kb/s
Count of elements                        : 3450
Stream size                              : 41.5 MiB (0%)
Title                                    : English-PGS
Language                                 : English
Default                                  : Yes
Forced                                   : No

Text #2
ID                                       : 9
Format                                   : PGS
Muxing mode                              : zlib
Codec ID                                 : S_HDMV/PGS
Codec ID/Info                            : Picture based subtitle format used on BDs/HD-DVDs
Duration                                 : 2 h 7 min
Bit rate                                 : 45.5 kb/s
Count of elements                        : 3466
Stream size                              : 41.6 MiB (0%)
Title                                    : English-PGS
Language                                 : English
Default                                  : No
Forced                                   : No

Text #3
ID                                       : 10
Format                                   : PGS
Muxing mode                              : zlib
Codec ID                                 : S_HDMV/PGS
Codec ID/Info                            : Picture based subtitle format used on BDs/HD-DVDs
Duration                                 : 2 h 8 min
Bit rate                                 : 41.1 kb/s
Count of elements                        : 3460
Stream size                              : 37.8 MiB (0%)
Title                                    : Chinese-PGS
Language                                 : Chinese
Default                                  : No
Forced                                   : No

Text #4
ID                                       : 11
Format                                   : PGS
Muxing mode                              : zlib
Codec ID                                 : S_HDMV/PGS
Codec ID/Info                            : Picture based subtitle format used on BDs/HD-DVDs
Duration                                 : 2 h 8 min
Bit rate                                 : 41.9 kb/s
Count of elements                        : 3454
Stream size                              : 38.5 MiB (0%)
Title                                    : Chinese-PGS
Language                                 : Chinese
Default                                  : No
Forced                                   : No

Text #5
ID                                       : 12
Format                                   : PGS
Muxing mode                              : zlib
Codec ID                                 : S_HDMV/PGS
Codec ID/Info                            : Picture based subtitle format used on BDs/HD-DVDs
Duration                                 : 2 h 8 min
Bit rate                                 : 37.1 kb/s
Count of elements                        : 3496
Stream size                              : 34.2 MiB (0%)
Title                                    : Chinese-PGS
Language                                 : Chinese
Default                                  : No
Forced                                   : No

Text #6
ID                                       : 13
Format                                   : PGS
Muxing mode                              : zlib
Codec ID                                 : S_HDMV/PGS
Codec ID/Info                            : Picture based subtitle format used on BDs/HD-DVDs
Duration                                 : 2 h 8 min
Bit rate                                 : 44.1 kb/s
Count of elements                        : 3326
Stream size                              : 40.6 MiB (0%)
Title                                    : Indonesian-PGS
Language                                 : Indonesian
Default                                  : No
Forced                                   : No

Text #7
ID                                       : 14
Format                                   : PGS
Muxing mode                              : zlib
Codec ID                                 : S_HDMV/PGS
Codec ID/Info                            : Picture based subtitle format used on BDs/HD-DVDs
Duration                                 : 2 h 8 min
Bit rate                                 : 34.6 kb/s
Count of elements                        : 3484
Stream size                              : 31.8 MiB (0%)
Title                                    : Korean-PGS
Language                                 : Korean
Default                                  : No
Forced                                   : No

Text #8
ID                                       : 15
Format                                   : PGS
Muxing mode                              : zlib
Codec ID                                 : S_HDMV/PGS
Codec ID/Info                            : Picture based subtitle format used on BDs/HD-DVDs
Duration                                 : 2 h 8 min
Bit rate                                 : 49.0 kb/s
Count of elements                        : 3440
Stream size                              : 44.9 MiB (0%)
Title                                    : Malay-PGS
Language                                 : Malay
Default                                  : No
Forced                                   : No

Text #9
ID                                       : 16
Format                                   : PGS
Muxing mode                              : zlib
Codec ID                                 : S_HDMV/PGS
Codec ID/Info                            : Picture based subtitle format used on BDs/HD-DVDs
Duration                                 : 2 h 8 min
Bit rate                                 : 35.6 kb/s
Count of elements                        : 3504
Stream size                              : 32.7 MiB (0%)
Title                                    : Thai-PGS
Language                                 : Thai
Default                                  : No
Forced                                   : No

Text #10
ID                                       : 17
Format                                   : PGS
Muxing mode                              : zlib
Codec ID                                 : S_HDMV/PGS
Codec ID/Info                            : Picture based subtitle format used on BDs/HD-DVDs
Duration                                 : 2 h 8 min
Bit rate                                 : 46.2 kb/s
Count of elements                        : 3428
Stream size                              : 42.4 MiB (0%)
Title                                    : Vietnamese-PGS
Language                                 : Vietnamese
Default                                  : No
Forced                                   : No

Menu
00:00:00.000                             : en:Chapter 01
00:09:35.074                             : en:Chapter 02
00:16:06.966                             : en:Chapter 03
00:25:18.558                             : en:Chapter 04
00:35:26.666                             : en:Chapter 05
00:41:57.097                             : en:Chapter 06
00:49:50.070                             : en:Chapter 07
00:57:09.676                             : en:Chapter 08
01:04:50.761                             : en:Chapter 09
01:15:57.261                             : en:Chapter 10
01:22:49.089                             : en:Chapter 11
01:29:25.318                             : en:Chapter 12
01:36:43.255                             : en:Chapter 13
01:44:47.364                             : en:Chapter 14
01:52:17.814                             : en:Chapter 15
01:57:45.516                             : en:Chapter 16




                                                                                                                                                                                                        
                                                                                                                                                                                                                                                                                                                                                                                                                                                                                                                                                                                                                                                                                                                                                                                                                                                      
c69b2e96ccb6aa0fb0e8d80df2857056.torrent (51.3 KB)

回复

使用道具 举报

百度云电影论坛 ( 辽ICP备17019482号-3 )

本网站所有资源来自网络,如无意中侵犯了您的权益,请发邮件至 [email protected],立即清除相关链接

GMT+8, 2020-10-30 04:06 , Processed in 0.097429 second(s), 22 queries .

Powered by Discuz! X3.2

© 2001-2013 Comsenz Inc.

快速回复 返回顶部 返回列表