百度云电影论坛

 找回密码
 立即注册

铁血男儿/匹兹堡 Pittsburgh.1942.720p.BluRay.x264-ORBS 4.67GB

[复制链接]

百度云电影 发表于 2021-2-19 13:34:18 | 显示全部楼层 |阅读模式
-->
帖子完整标题:铁血男儿/匹兹堡 Pittsburgh.1942.720p.BluRay.x264-ORBS 4.67GB



[/url]

◎译  名 铁血男儿/匹兹堡/情迷匹兹堡
◎片  名 Pittsburgh
◎年  代 1942
◎产  地 美国
◎类  别 剧情
◎语  言 英语
◎上映日期 1942-12-02
◎IMDb评分  6.6/10 from 1069 users
◎IMDb链接  
◎豆瓣评分 /10 from 0 users
◎豆瓣链接 
◎片  长 91 分钟
◎导  演 刘易斯·塞勒 Lewis Seiler
◎编  剧 肯尼斯·加美特 Kenneth Gamet / 汤姆·里德 Tom Reed / 约翰·特威斯特 John Twist
◎主  演 Bob Perry
       Sandra Morgan
       Broderick O'Farrell
       内斯特帕瓦 Nestor Paiva
       Frances Morris
       Larry McGrath
       法兰克·马洛 Frank Marlowe
       Alphonse Martell
       Irving Mitchell
       Paul McVey
       米拉·麦金尼 Mira McKinney
       爱德华·基恩 Edward Keane
       William Ruhl
       Joe Kirk
       Nolan Leary
       Harry Seymour
       路德维希·施托塞尔 Ludwig St?ssel
       雷·沃克 Ray Walker
       Phil Warren
       Anthony Warde
       Dale Van Sickel
       Tom Steele
       Paul Scott
       萨米·斯坦 Sammy Stein
       Ben Taggart
       查尔斯·沙利文 Charles Sullivan
       Frankie Van
       查尔兹·歇洛克 Charles Sherlock
       Bob Reeves
       西里尔·环 Cyril Ring
       Virginia Sale
       John Sheehan
       Lorin Raker
       伊桑·莱德劳 Ethan Laidlaw
       山姆·哈里斯 Sam Harris
       Don Barclay
       Robert Barron
       布鲁克斯·贝内迪克特 Brooks Benedict
       韦德·博特勒 Wade Boteler
       查尔斯·阿恩特 Charles Arnt
       Lois Austin
       兰道夫·斯科特 Randolph Scott
       保罗·菲克斯 Paul Fix
       埃德蒙·莫蒂默 Edmund Mortimer
       达格拉斯·福雷 Douglas Fowley
       弗兰克·克雷文 Frank Craven
       谢姆普·霍华德 Shemp Howard
       Grace Cunard
       约翰·韦恩 John Wayne
       玛琳·黛德丽 Marlene Dietrich
       约翰尼·马文 Johnny Marvin
       Kay Linaker
       泰德·比林斯 Ted Billings
       Jack Chefe
       詹姆斯·科纳蒂 James Conaty
       萨缪尔·S·辛兹 Samuel S. Hinds
       托马斯·戈梅斯 Thomas Gomez
       Jack Gargan
       Winifred Harris
       Eddie Hall
       Gus Glassmire
       威廉·古尔德 William Gould
       William Haade
       Jack Gardner
       约翰·迪尔森 John Dilson
       贝丝·弗劳尔斯 Bess Flowers
       Sayre Dearing
       Victor Cox
       霍巴特·卡瓦诺 Hobart Cavanaugh
       查尔斯·科尔曼 Charles Coleman
       Hal Craig
       哈利·考丁 Harry Cording
       路易丝·奥尔布里顿 Louise Allbritton

◎标  签 玛琳·黛德丽 | MarleneDietrich | 美国 | 剧情 | Marlene_Dietrich | John_Wayne | 约翰.韦恩 | 1942

◎简  介

  暂无相关剧情介绍
Video
ID                                       : 1
Format                                   : AVC
Format/Info                              : Advanced Video Codec
Format profile                           :
Format settings                          : CABAC / 11 Ref Frames
Format settings, CABAC                   : Yes
Format settings, Reference frames        : 11 frames
Codec ID                                 : V_MPEG4/ISO/AVC
Duration                                 : 1 h 31 min
Bit rate                                 : 6 540 kb/s
Width                                    : 970 pixels
Height                                   : 720 pixels
Display aspect ratio                     : 4:3
Frame rate mode                          : Constant
Frame rate                               : 23.976 (24000/1001/189150) FPS
Color space                              : YUV
Chroma subsampling                       : 4:2:0
Bit depth                                : 8 bits
Scan type                                : Progressive
Bits/(Pixel*Frame)                       : 0.391
Stream size                              : 4.17 GiB (89%)
Writing library                          : x264 core 161 r3027 4121277
Encoding settings                        : cabac=1 / ref=11 / deblock=1:-3:-3 / analyse=0x3:0x133 / me=umh / subme=10 / psy=1 / psy_rd=1.20:0.00 / mixed_ref=1 / me_range=24 / chroma_me=1 / trellis=2 / 8x8dct=1 / cqm=0 / deadzone=21,11 / fast_pskip=0 / chroma_qp_offset=-2 / threads=6 / lookahead_threads=1 / sliced_threads=0 / nr=0 / decimate=0 / interlaced=0 / bluray_compat=0 / constrained_intra=0 / bframes=8 / b_pyramid=2 / b_adapt=2 / b_bias=0 / direct=3 / weightb=1 / open_gop=0 / weightp=2 / keyint=250 / keyint_min=23 / scenecut=40 / intra_refresh=0 / rc_lookahead=60 / rc=crf / mbtree=1 / crf=18.0 / qcomp=0.60 / qpmin=0 / qpmax=69 / qpstep=4 / ip_ratio=1.40 / aq=3:0.90
Default                                  : Yes
Forced                                   : No
Color range                              : Limited
Matrix coefficients                      : BT.709

Audio #1
ID                                       : 2
Format                                   : FLAC
Format/Info                              : Free Lossless Audio Codec
Codec ID                                 : A_FLAC
Duration                                 : 1 h 31 min
Bit rate mode                            : Variable
Bit rate                                 : 615 kb/s
Channel(s)                               : 2 channels
Channel layout                           : L R
Sampling rate                            : 48.0 kHz
Frame rate                               : 11.719 FPS (4096 SPF)
Bit depth                                : 24 bits
Compression mode                         : Lossless
Stream size                              : 401 MiB (8%)
Writing library                          : libFLAC 1.3.2 (UTC 2017-01-01)
Language                                 : English
Default                                  : Yes
Forced                                   : No

Audio #2
ID                                       : 3
Format                                   : AAC LC
Format/Info                              : Advanced Audio Codec Low Complexity
Codec ID                                 : A_AAC-2
Duration                                 : 1 h 31 min
Bit rate                                 : 152 kb/s
Channel(s)                               : 2 channels
Channel layout                           : L R
Sampling rate                            : 48.0 kHz
Frame rate                               : 46.875 FPS (1024 SPF)
Compression mode                         : Lossy
Delay relative to video                  : 20 ms
Stream size                              : 99.0 MiB (2%)
Title                                    : Commentary
Language                                 : English
Default                                  : No
Forced                                   : No

Text
ID                                       : 4
Format                                   : PGS
Muxing mode                              : zlib
Codec ID                                 : S_HDMV/PGS
Codec ID/Info                            : Picture based subtitle format used on BDs/HD-DVDs
Duration                                 : 1 h 29 min
Bit rate                                 : 56.2 kb/s
Count of elements                        : 3236
Stream size                              : 36.0 MiB (1%)
Title                                    : SDH
Language                                 : English
Default                                  : No
Forced                                   : No

Menu
00:00:00.000                             : en:Chapter 01
00:09:36.868                             : en:Chapter 02
00:19:56.779                             : en:Chapter 03
00:31:42.943                             : en:Chapter 04
00:38:33.019                             : en:Chapter 05
00:45:55.336                             : en:Chapter 06
00:55:48.804                             : en:Chapter 07
01:03:18.628                             : en:Chapter 08
01:11:15.438                             : en:Chapter 09
01:20:02.840                             : en:Chapter 10

[/url]



                                                                                                                                                                                                        
                                                                                                                                                                                                                                                                                                                                                                                                                                                                                                                                                                                                                                                                                                                                                                                                                                                        
675f6860876a67eef8ee4cc8387434f9.zip (47.36 KB)

回复

使用道具 举报

百度云电影论坛 ( 辽ICP备17019482号-3 )

本网站所有资源来自网络,如无意中侵犯了您的权益,请发邮件至 [email protected],立即清除相关链接

GMT+8, 2021-3-3 19:22 , Processed in 0.094447 second(s), 22 queries .

Powered by Discuz! X3.2

© 2001-2013 Comsenz Inc.

快速回复 返回顶部 返回列表