百度云电影论坛

 找回密码
 立即注册

天使陨落 Angels.Fallen.2020.720p.BluRay.x264-FREEMAN 2.91GB

[复制链接]

-->
帖子完整标题:天使陨落 Angels.Fallen.2020.720p.BluRay.x264-FREEMAN 2.91GB





◎译  名 天使陨落
◎片  名 Angels Fallen
◎年  代 2020
◎产  地 美国
◎类  别 恐怖
◎语  言 英语
◎上映日期 2020-01-14(美国)
◎IMDb评分  3.9/10 from 942 users
◎IMDb链接  
◎豆瓣评分 /10 from 0 users
◎豆瓣链接 
◎片  长 86分钟
◎主  演 妮古拉·柏森娜 Nicola Posener
       迈克尔·马德森 Michael Madsen
       休斯顿·瑞恩斯 Houston Rhines
       Vinny DeGennaro
       海莉·赫尔米达 Hailey Hermida
       李·霍拉法伊 Lee Kholafai
       汤米·纳什 Tommy Nash
       William Legue

◎标  签 美国 | 奇幻 | 2020 | 美国电影 | 科幻 | 惊悚 | 奇幻魔幻 | 动作运动

◎简  介

  在他的妻子与黑暗势力的战斗中不幸牺牲后,加布里埃尔被说服重新加入他以前的恶魔猎人团队,从美国相对不为人知的地方旅行到欧洲的未知深处。他与他疏远的最好的朋友迈克尔一起,他有一个黑暗的秘密,神秘的汉娜的愿景预测未来,和一群形形色色的恶魔杀手。在失去了他的一部分团队后,加布里埃尔必须面对他悲惨的过去,并决定谁是真正的朋友或敌人。
Video
ID                                       : 1
Format                                   : AVC
Format/Info                              : Advanced Video Codec
Format profile                           :
Format settings                          : CABAC / 8 Ref Frames
Format settings, CABAC                   : Yes
Format settings, Reference frames        : 8 frames
Codec ID                                 : V_MPEG4/ISO/AVC
Duration                                 : 1 h 26 min
Bit rate                                 : 4 158 kb/s
Width                                    : 1 280 pixels
Height                                   : 720 pixels
Display aspect ratio                     : 16:9
Frame rate mode                          : Constant
Frame rate                               : 23.976 (24000/1001/189150) FPS
Color space                              : YUV
Chroma subsampling                       : 4:2:0
Bit depth                                : 8 bits
Scan type                                : Progressive
Bits/(Pixel*Frame)                       : 0.188
Stream size                              : 2.52 GiB (87%)
Writing library                          : x264 core 161 r3018 db0d417
Encoding settings                        : cabac=1 / ref=8 / deblock=1:-3:-3 / analyse=0x3:0x133 / me=umh / subme=9 / psy=1 / psy_rd=1.00:0.00 / mixed_ref=1 / me_range=16 / chroma_me=1 / trellis=2 / 8x8dct=1 / cqm=0 / deadzone=21,11 / fast_pskip=1 / chroma_qp_offset=-2 / threads=9 / lookahead_threads=1 / sliced_threads=0 / nr=0 / decimate=1 / interlaced=0 / bluray_compat=0 / constrained_intra=0 / bframes=3 / b_pyramid=2 / b_adapt=2 / b_bias=0 / direct=3 / weightb=1 / open_gop=0 / weightp=2 / keyint=250 / keyint_min=23 / scenecut=40 / intra_refresh=0 / rc_lookahead=60 / rc=crf / mbtree=1 / crf=17.0 / qcomp=0.60 / qpmin=0 / qpmax=69 / qpstep=4 / ip_ratio=1.40 / aq=3:0.80
Language                                 : English
Default                                  : Yes
Forced                                   : No
Color range                              : Limited
Matrix coefficients                      : BT.709

Audio
ID                                       : 2
Format                                   : AC-3
Format/Info                              : Audio Coding 3
Commercial name                          : Dolby Digital
Codec ID                                 : A_AC3
Duration                                 : 1 h 26 min
Bit rate mode                            : Constant
Bit rate                                 : 640 kb/s
Channel(s)                               : 6 channels
Channel layout                           : L R C LFE Ls Rs
Sampling rate                            : 48.0 kHz
Frame rate                               : 31.250 FPS (1536 SPF)
Compression mode                         : Lossy
Stream size                              : 397 MiB (13%)
Title                                    : AC3
Language                                 : English
Service kind                             : Complete Main
Default                                  : Yes
Forced                                   : No

Menu
00:00:00.000                             : en:00:00:00.000
00:10:42.642                             : en:00:10:42.642
00:20:38.279                             : en:00:20:38.279
00:30:08.724                             : en:00:30:08.724
00:41:25.942                             : en:00:41:25.942
01:00:51.606                             : en:01:00:51.606
01:10:18.881                             : en:01:10:18.881
01:17:48.455                             : en:01:17:48.455





                                                                                                                                                                                                        
                                                                                                                                                                                                                                                                                                                                                                                                                                                                                                                                                                                                                                                                                                                                                                                                                                                        
c44d4458cabbdee4d244b5e53208f944.zip (29.72 KB)

回复

使用道具 举报

百度云电影论坛 ( 辽ICP备17019482号-3 )

本网站所有资源来自网络,如无意中侵犯了您的权益,请发邮件至 [email protected],立即清除相关链接

GMT+8, 2021-1-16 23:05 , Processed in 0.097583 second(s), 22 queries .

Powered by Discuz! X3.2

© 2001-2013 Comsenz Inc.

快速回复 返回顶部 返回列表