百度云电影论坛

 找回密码
 立即注册

沦陷分界线 Line.of.Demarcation.1966.720p.BluRay.x264-BiPOLAR 9.49GB

[复制链接]

-->
帖子完整标题:沦陷分界线 Line.of.Demarcation.1966.720p.BluRay.x264-BiPOLAR 9.49GB





◎译  名 沦陷分界线/Line of Demarcation
◎片  名 La ligne de démarcation
◎年  代 1966
◎产  地 法国
◎类  别 剧情
◎语  言 法语
◎上映日期 1966
◎IMDb评分  6.9/10 from 460 users
◎IMDb链接  
◎豆瓣评分 /10 from 0 users
◎豆瓣链接 
◎片  长 120 分钟
◎导  演 克洛德·夏布洛尔 Claude Chabrol
◎编  剧 克洛德·夏布洛尔 Claude Chabrol
◎主  演 珍·茜宝 Jean Seberg
       莫里斯·罗内 Maurice Ronet
       丹尼尔·盖林 Daniel Gélin
       Bill Curran
       马里奥·达维德 Mario David
       赖因哈德·科尔德霍夫 Reinhard Kolldehoff
       Claude Léveillée
       吕迪·勒努瓦 Rudy Lenoir
       诺埃尔·罗克韦尔 No?l Roquevert
       吉尔贝·塞尔维安 Gilbert Servien
       多米尼克·扎尔迪 Dominique Zardi
       塞尔日·本托 Serge Bento
       亨利·埃托 Henri Attal
       让·雅南 Jean Yanne
       雅克·贝汉 Jacques Perrin
       克洛德·贝里 Claude Berri
       保罗·热戈夫 Paul Gégauff
       Colin Drake
       勒内·阿瓦尔 René Havard
       斯特凡·奥德朗 Stéphane Audran
       罗杰·杜马斯 Roger Dumas
       David O'Brien

◎标  签 1960s | 克劳德·夏布洛尔 | Claude_Chabrol | 法国 | 剧情 | 法国导演电影 | 欧洲 | 战争

◎简  介

  1941年冬季。法国的北方区域被德军占领。在南方则是自由的法国,而分界线则是卢河上的一座小桥。在占领区有一个小城镇,居民生活还算平静,直到有一天,二个抵抗运动的成员--法国军官皮埃尔及报务员跳伞来到这里,居民们平静的生活被打破了,德军全镇进行搜查...
  
  http://movie.mtime.com/30584/reviews/7424625.html
Video
ID                                       : 1
Format                                   : AVC
Format/Info                              : Advanced Video Codec
Format profile                           :
Format settings                          : CABAC / 9 Ref Frames
Format settings, CABAC                   : Yes
Format settings, Reference frames        : 9 frames
Codec ID                                 : V_MPEG4/ISO/AVC
Duration                                 : 2 h 0 min
Bit rate                                 : 10.9 Mb/s
Width                                    : 1 194 pixels
Height                                   : 720 pixels
Display aspect ratio                     : 5:3
Frame rate mode                          : Constant
Frame rate                               : 23.976 (24000/1001/189150) FPS
Color space                              : YUV
Chroma subsampling                       : 4:2:0
Bit depth                                : 8 bits
Scan type                                : Progressive
Bits/(Pixel*Frame)                       : 0.527
Stream size                              : 9.17 GiB (97%)
Writing library                          : x264 core 161 r3027 4121277
Encoding settings                        : cabac=1 / ref=9 / deblock=1:-3:-3 / analyse=0x3:0x133 / me=umh / subme=10 / psy=1 / psy_rd=1.00:0.15 / mixed_ref=1 / me_range=24 / chroma_me=1 / trellis=2 / 8x8dct=1 / cqm=0 / deadzone=21,11 / fast_pskip=1 / chroma_qp_offset=-3 / threads=18 / lookahead_threads=3 / sliced_threads=0 / nr=0 / decimate=1 / interlaced=0 / bluray_compat=0 / constrained_intra=0 / bframes=8 / b_pyramid=2 / b_adapt=2 / b_bias=0 / direct=3 / weightb=1 / open_gop=0 / weightp=2 / keyint=250 / keyint_min=23 / scenecut=40 / intra_refresh=0 / rc_lookahead=60 / rc=crf / mbtree=1 / crf=15.0 / qcomp=0.60 / qpmin=0 / qpmax=69 / qpstep=4 / ip_ratio=1.40 / aq=3:0.50
Language                                 : English
Default                                  : Yes
Forced                                   : No

Audio #1
ID                                       : 2
Format                                   : FLAC
Format/Info                              : Free Lossless Audio Codec
Codec ID                                 : A_FLAC
Duration                                 : 2 h 0 min
Bit rate mode                            : Variable
Bit rate                                 : 278 kb/s
Channel(s)                               : 2 channels
Channel layout                           : L R
Sampling rate                            : 48.0 kHz
Frame rate                               : 11.719 FPS (4096 SPF)
Bit depth                                : 16 bits
Compression mode                         : Lossless
Stream size                              : 240 MiB (2%)
Writing library                          : libFLAC 1.2.1 (UTC 2007-09-17)
Language                                 : French
Default                                  : Yes
Forced                                   : No

Audio #2
ID                                       : 3
Format                                   : AAC LC
Format/Info                              : Advanced Audio Codec Low Complexity
Codec ID                                 : A_AAC-2
Duration                                 : 2 h 0 min
Bit rate                                 : 85.4 kb/s
Channel(s)                               : 2 channels
Channel layout                           : L R
Sampling rate                            : 48.0 kHz
Frame rate                               : 46.875 FPS (1024 SPF)
Compression mode                         : Lossy
Delay relative to video                  : 9 ms
Stream size                              : 73.9 MiB (1%)
Title                                    : English Commentary by Samm Deighan
Language                                 : English
Default                                  : No
Forced                                   : No

Text #1
ID                                       : 4
Format                                   : UTF-8
Codec ID                                 : S_TEXT/UTF8
Codec ID/Info                            : UTF-8 Plain Text
Duration                                 : 1 h 59 min
Bit rate                                 : 55 b/s
Count of elements                        : 1559
Stream size                              : 49.1 KiB (0%)
Title                                    : English
Language                                 : English
Default                                  : Yes
Forced                                   : Yes

Text #2
ID                                       : 5
Format                                   : PGS
Muxing mode                              : zlib
Codec ID                                 : S_HDMV/PGS
Codec ID/Info                            : Picture based subtitle format used on BDs/HD-DVDs
Duration                                 : 1 h 59 min
Bit rate                                 : 13.2 kb/s
Count of elements                        : 3118
Stream size                              : 11.3 MiB (0%)
Title                                    : English
Language                                 : English
Default                                  : No
Forced                                   : No

Menu
00:10:16.909                             : en:00:10:16.909
00:23:03.466                             : en:00:23:03.466
00:37:47.892                             : en:00:37:47.892
00:51:37.220                             : en:00:51:37.220
01:08:35.446                             : en:01:08:35.446
01:24:36.030                             : en:01:24:36.030
01:40:54.883                             : en:01:40:54.883
01:50:26.079                             : en:01:50:26.079





                                                                                                                                                                                                        
                                                                                                                                                                                                                                                                                                                                                                                                                                                                                                                                                                                                                                                                                                                                                                                                                                                        
bdf743db71abb2305543bd0ebec9b8fc.zip (48.16 KB)

回复

使用道具 举报

百度云电影论坛 ( 辽ICP备17019482号-3 )

本网站所有资源来自网络,如无意中侵犯了您的权益,请发邮件至 [email protected],立即清除相关链接

GMT+8, 2021-1-16 22:18 , Processed in 0.096648 second(s), 22 queries .

Powered by Discuz! X3.2

© 2001-2013 Comsenz Inc.

快速回复 返回顶部 返回列表