百度云电影论坛

 找回密码
 立即注册

摄氏度/低温 Centigrade.2020.720p.BluRay.x264-UNVEiL 1.07GB

[复制链接]

百度云电影 发表于 2021-1-9 19:29:27 | 显示全部楼层 |阅读模式
-->
帖子完整标题:摄氏度/低温 Centigrade.2020.720p.BluRay.x264-UNVEiL 1.07GB





◎译  名 摄氏度/低温/极寒求生
◎片  名 Centigrade
◎年  代 2020
◎产  地 美国
◎类  别 惊悚
◎语  言 英语
◎上映日期 2020-08-28(美国)
◎IMDb评分  4.4/10 from 1487 users
◎IMDb链接  
◎豆瓣评分 4.3/10 from 389 users
◎豆瓣链接 
◎片  长 127分钟
◎导  演 布伦丹·沃尔什 Brendan Walsh
◎编  剧 布伦丹·沃尔什 Brendan Walsh
◎主  演 珍尼希斯·罗德里格兹 Genesis Rodriguez
       文森特·皮亚扎 Vincent Piazza

◎标  签 美国 | 2020 | 剧情 | 惊悚 | 暴风雪 | 美国电影 | 电影 | 超级烂片

◎简  介

  一对年轻的美国夫妇去挪威的山区旅行。为避开暴风雪他们靠边停车后闭眼休息,当他们醒来时发现他们和车一起被埋在了冰雪之下。妻子已经怀孕八个月,恶劣的天气造成温度还在迅速下降,缺乏食物的他们必须一起努力对抗低温和绝望。
Video
ID                                       : 1
Format                                   : AVC
Format/Info                              : Advanced Video Codec
Format profile                           :
Format settings                          : CABAC / 8 Ref Frames
Format settings, CABAC                   : Yes
Format settings, Reference frames        : 8 frames
Codec ID                                 : V_MPEG4/ISO/AVC
Duration                                 : 1 h 29 min
Bit rate                                 : 1 073 kb/s
Width                                    : 1 280 pixels
Height                                   : 538 pixels
Display aspect ratio                     : 2.40:1
Frame rate mode                          : Constant
Frame rate                               : 23.976 (24000/1001/189150) FPS
Color space                              : YUV
Chroma subsampling                       : 4:2:0
Bit depth                                : 8 bits
Scan type                                : Progressive
Bits/(Pixel*Frame)                       : 0.065
Stream size                              : 685 MiB (62%)
Writing library                          : x264 core 161 r3027 4121277
Encoding settings                        : cabac=1 / ref=8 / deblock=1:-3:-3 / analyse=0x3:0x133 / me=umh / subme=9 / psy=1 / psy_rd=1.00:0.00 / mixed_ref=1 / me_range=16 / chroma_me=1 / trellis=2 / 8x8dct=1 / cqm=0 / deadzone=21,11 / fast_pskip=0 / chroma_qp_offset=-2 / threads=17 / lookahead_threads=1 / sliced_threads=0 / nr=0 / decimate=1 / interlaced=0 / bluray_compat=0 / constrained_intra=0 / bframes=3 / b_pyramid=2 / b_adapt=2 / b_bias=0 / direct=3 / weightb=1 / open_gop=0 / weightp=2 / keyint=250 / keyint_min=23 / scenecut=40 / intra_refresh=0 / rc_lookahead=60 / rc=crf / mbtree=1 / crf=17.0 / qcomp=0.60 / qpmin=0 / qpmax=69 / qpstep=4 / ip_ratio=1.40 / aq=1:1.00
Language                                 : English
Default                                  : Yes
Forced                                   : No

Audio
ID                                       : 2
Format                                   : AC-3
Format/Info                              : Audio Coding 3
Commercial name                          : Dolby Digital
Codec ID                                 : A_AC3
Duration                                 : 1 h 29 min
Bit rate mode                            : Constant
Bit rate                                 : 640 kb/s
Channel(s)                               : 6 channels
Channel layout                           : L R C LFE Ls Rs
Sampling rate                            : 48.0 kHz
Frame rate                               : 31.250 FPS (1536 SPF)
Compression mode                         : Lossy
Stream size                              : 409 MiB (37%)
Language                                 : English
Service kind                             : Complete Main
Default                                  : Yes
Forced                                   : No

Text
ID                                       : 3
Format                                   : PGS
Muxing mode                              : zlib
Codec ID                                 : S_HDMV/PGS
Codec ID/Info                            : Picture based subtitle format used on BDs/HD-DVDs
Duration                                 : 1 h 20 min
Bit rate                                 : 9 539 b/s
Count of elements                        : 824
Stream size                              : 5.50 MiB (1%)
Language                                 : German
Default                                  : No
Forced                                   : No

Menu
00:00:00.000                             : en:Kapitel 01
00:05:57.774                             : en:Kapitel 02
00:16:13.472                             : en:Kapitel 03
00:25:32.281                             : en:Kapitel 04
00:34:20.308                             : en:Kapitel 05
00:38:53.706                             : en:Kapitel 06
00:44:51.898                             : en:Kapitel 07
00:55:40.546                             : en:Kapitel 08
01:06:01.332                             : en:Kapitel 09
01:14:22.333                             : en:Kapitel 10
01:19:09.954                             : en:Kapitel 11
01:25:24.119                             : en:Kapitel 12





                                                                                                                                                                                                        
                                                                                                                                                                                                                                                                                                                                                                                                                                                                                                                                                                                                                                                                                                                                                                                                                                                        
21ecf7caf60340fa6bdf7af0ae9b3b4e.zip (11.39 KB)

回复

使用道具 举报

百度云电影论坛 ( 辽ICP备17019482号-3 )

本网站所有资源来自网络,如无意中侵犯了您的权益,请发邮件至 [email protected],立即清除相关链接

GMT+8, 2021-1-28 18:31 , Processed in 0.096480 second(s), 22 queries .

Powered by Discuz! X3.2

© 2001-2013 Comsenz Inc.

快速回复 返回顶部 返回列表