百度云电影论坛

 找回密码
 立即注册

赌城纵横 Hard.Eight.1996.720p.BluRay.x264-USURY 5.31GB

[复制链接]

-->
帖子完整标题:赌城纵横 Hard.Eight.1996.720p.BluRay.x264-USURY 5.31GB





◎译  名 赌城纵横/Sydney/赌场纵横/赌城新王牌
◎片  名 Hard Eight
◎年  代 1996
◎产  地 美国
◎类  别 剧情 / 犯罪
◎语  言 英语
◎上映日期 1997-02-28(美国) / 1997-10-17
◎IMDb评分  7.2/10 from 42074 users
◎IMDb链接  
◎豆瓣评分 6.7/10 from 1242 users
◎豆瓣链接 
◎片  长 102 分钟
◎导  演 保罗·托马斯·安德森 Paul Thomas Anderson
◎编  剧 保罗·托马斯·安德森 Paul Thomas Anderson
◎主  演 菲利普·贝克·霍尔 Philip Baker Hall
       约翰·C·赖利 John C. Reilly
       格温妮斯·帕特洛 Gwyneth Paltrow
       塞缪尔·杰克逊 Samuel L. Jackson
       F·威廉·帕克 F. William Parker
       菲利普·塞默·霍夫曼 Philip Seymour Hoffman
       梅洛拉·沃尔特斯 Melora Walters
       Ernie Anderson
       罗伯特·雷吉利 Robert Ridgely

◎标  签 美国 | 保罗·托马斯·安德森 | PaulThomasAnderson | 1996 | 剧情 | 犯罪 | 美国电影 | 1990s

◎简  介

  一次偶然中,西德尼(菲利浦·贝克·霍尔 Philip Baker Hall 饰)遇见了名为约翰(约翰·C·赖利 John C. Reilly 饰)的男子,他将穷困潦倒的约翰带到了赌场之中,教会了他赌术,希望约翰能够借此时来运转。在赌场,西德尼遇见了违反了赌场规定和客人进行肉体交易的女招待克莱门汀(格温妮丝·帕特洛 Gwyneth Paltrow 饰),哪知道克莱门汀和约翰一见面就坠入了情网,马上决定携手步入婚姻的殿堂。
  
  西德尼的朋友吉米(塞缪尔·杰克逊 Samuel L. Jackson 饰)找到了西德尼,他的手中握着一个属于西德尼的秘密。如今,吉米以这个秘密为筹码想要要挟和勒索西德尼,不料却惹上了杀身之祸。
Video
ID                                       : 1
Format                                   : AVC
Format/Info                              : Advanced Video Codec
Format profile                           :
Format settings                          : CABAC / 11 Ref Frames
Format settings, CABAC                   : Yes
Format settings, Reference frames        : 11 frames
Codec ID                                 : V_MPEG4/ISO/AVC
Duration                                 : 1 h 41 min
Bit rate                                 : 5 990 kb/s
Width                                    : 1 280 pixels
Height                                   : 546 pixels
Display aspect ratio                     : 2.35:1
Frame rate mode                          : Constant
Frame rate                               : 23.976 (24000/1001/189150) FPS
Color space                              : YUV
Chroma subsampling                       : 4:2:0
Bit depth                                : 8 bits
Scan type                                : Progressive
Bits/(Pixel*Frame)                       : 0.357
Stream size                              : 4.26 GiB (80%)
Writing library                          : x264 core 161 r3027 4121277
Encoding settings                        : cabac=1 / ref=11 / deblock=1:-3:-3 / analyse=0x3:0x133 / me=umh / subme=10 / psy=1 / psy_rd=1.00:0.15 / mixed_ref=1 / me_range=24 / chroma_me=1 / trellis=2 / 8x8dct=1 / cqm=0 / deadzone=21,11 / fast_pskip=1 / chroma_qp_offset=-3 / threads=17 / lookahead_threads=2 / sliced_threads=0 / nr=0 / decimate=1 / interlaced=0 / bluray_compat=0 / constrained_intra=0 / bframes=8 / b_pyramid=2 / b_adapt=2 / b_bias=0 / direct=3 / weightb=1 / open_gop=0 / weightp=2 / keyint=250 / keyint_min=23 / scenecut=40 / intra_refresh=0 / rc_lookahead=60 / rc=crf / mbtree=1 / crf=17.0 / qcomp=0.60 / qpmin=0 / qpmax=69 / qpstep=4 / ip_ratio=1.40 / aq=3:0.50
Language                                 : English
Default                                  : Yes
Forced                                   : No
Color range                              : Limited
Matrix coefficients                      : BT.709

Audio #1
ID                                       : 2
Format                                   : FLAC
Format/Info                              : Free Lossless Audio Codec
Codec ID                                 : A_FLAC
Duration                                 : 1 h 41 min
Bit rate mode                            : Variable
Bit rate                                 : 1 261 kb/s
Channel(s)                               : 2 channels
Channel layout                           : L R
Sampling rate                            : 48.0 kHz
Frame rate                               : 11.719 FPS (4096 SPF)
Bit depth                                : 24 bits
Compression mode                         : Lossless
Stream size                              : 919 MiB (17%)
Writing library                          : libFLAC 1.2.1 (UTC 2007-09-17)
Language                                 : English
Default                                  : Yes
Forced                                   : No

Audio #2
ID                                       : 3
Format                                   : AAC LC
Format/Info                              : Advanced Audio Codec Low Complexity
Codec ID                                 : A_AAC-2
Duration                                 : 1 h 41 min
Bit rate                                 : 87.5 kb/s
Channel(s)                               : 2 channels
Channel layout                           : L R
Sampling rate                            : 48.0 kHz
Frame rate                               : 46.875 FPS (1024 SPF)
Compression mode                         : Lossy
Delay relative to video                  : 9 ms
Stream size                              : 63.7 MiB (1%)
Title                                    : English Commentary by Paul Thomas Anderson and Philip Baker Hall
Language                                 : English
Default                                  : No
Forced                                   : No

Audio #3
ID                                       : 4
Format                                   : AAC LC
Format/Info                              : Advanced Audio Codec Low Complexity
Codec ID                                 : A_AAC-2
Duration                                 : 1 h 41 min
Bit rate                                 : 109 kb/s
Channel(s)                               : 2 channels
Channel layout                           : L R
Sampling rate                            : 48.0 kHz
Frame rate                               : 46.875 FPS (1024 SPF)
Compression mode                         : Lossy
Delay relative to video                  : 9 ms
Stream size                              : 79.5 MiB (1%)
Title                                    : English Commentary by Paul Thomas Anderson, Philip Baker Hall, Michelle Satter and various crew members
Language                                 : English
Default                                  : No
Forced                                   : No

Text #1
ID                                       : 5
Format                                   : UTF-8
Codec ID                                 : S_TEXT/UTF8
Codec ID/Info                            : UTF-8 Plain Text
Duration                                 : 1 h 32 min
Bit rate                                 : 60 b/s
Count of elements                        : 1387
Stream size                              : 40.8 KiB (0%)
Title                                    : English
Language                                 : English
Default                                  : No
Forced                                   : No

Text #2
ID                                       : 6
Format                                   : PGS
Muxing mode                              : zlib
Codec ID                                 : S_HDMV/PGS
Codec ID/Info                            : Picture based subtitle format used on BDs/HD-DVDs
Duration                                 : 1 h 32 min
Bit rate                                 : 13.1 kb/s
Count of elements                        : 2771
Stream size                              : 8.65 MiB (0%)
Title                                    : English
Language                                 : English
Default                                  : No
Forced                                   : No

Menu
00:00:00.000                             : en:00:00:00.000
00:08:47.360                             : en:00:08:47.360
00:21:47.014                             : en:00:21:47.014
00:34:11.216                             : en:00:34:11.216
00:46:55.146                             : en:00:46:55.146
00:57:11.762                             : en:00:57:11.762
01:03:50.326                             : en:01:03:50.326
01:09:49.644                             : en:01:09:49.644
01:19:53.038                             : en:01:19:53.038
01:29:44.379                             : en:01:29:44.379
01:37:33.306                             : en:01:37:33.306





                                                                                                                                                                                                        
                                                                                                                                                                                                                                                                                                                                                                                                                                                                                                                                                                                                                                                                                                                                                                                                                                                        
7ac273b6bab4c51d8667fa94f0fc7757.zip (27.22 KB)

回复

使用道具 举报

百度云电影论坛 ( 辽ICP备17019482号-3 )

本网站所有资源来自网络,如无意中侵犯了您的权益,请发邮件至 [email protected],立即清除相关链接

GMT+8, 2021-1-16 22:25 , Processed in 0.094063 second(s), 22 queries .

Powered by Discuz! X3.2

© 2001-2013 Comsenz Inc.

快速回复 返回顶部 返回列表