百度云电影论坛

 找回密码
 立即注册

警察 Police.2020.FRENCH.1080p.BluRay.x264-EA 10.09GB

[复制链接]

百度云电影 发表于 2021-1-9 19:29:01 | 显示全部楼层 |阅读模式
-->
帖子完整标题:警察 Police.2020.FRENCH.1080p.BluRay.x264-EA 10.09GB





◎译  名 警察/Night Shift
◎片  名 Police
◎年  代 2020
◎产  地 法国,比利时
◎类  别 剧情
◎语  言 法语
◎上映日期 2020-02-23(柏林电影节) / 2020-09-02(法国)
◎IMDb评分  5.1/10 from 441 users
◎IMDb链接  
◎豆瓣评分 /10 from 0 users
◎豆瓣链接 
◎片  长 99分钟
◎导  演 安妮·芳婷 Anne Fontaine
◎编  剧 安妮·芳婷 Anne Fontaine
◎主  演 维尔日妮·埃菲拉 Virginie Efira
       奥玛·希 Omar Sy
       格莱高利·嘉德波瓦 Grégory Gadebois
       佩曼·莫阿迪 Peyman Moadi
       艾莉莎·拉索斯基 Elisa Lasowski
       Cécile Rebboah
       塞德里克·维埃拉 Cédric Vieira
       奥罗拉·布鲁坦 Aurore Broutin
       Keyvan Khojandi
       Yeelem Jappain

◎标  签 2020 | 法国 | P-BerlinD特别展映 | Francais | 比利时 | 剧情 | BERLINALE2020 | BERLINALE

◎简  介

  安妮·芳婷将执导影片[警察](Police,暂译),卡司包括维尔日妮·埃菲拉([20岁的差距])、奥玛·希([触不可及])、格莱高利·嘉德波瓦([你拯救了我的灵魂])、佩曼·莫阿迪([一次别离])。芳婷与克莱尔·巴雷(Claire Barré)操刀剧本。
  
  影片故事改编自雨果·鲍里斯小说,讲述三名警察被迫接受一项不同寻常的任务:将一名陌生人遣返原国。在开车前往飞机场的路上,其中一名警察意识到,如果让他回到自己的国家,他将会遭到死亡的威胁。于是这名警官劝说其他两名同事放他走。
Video
ID                                       : 1
Format                                   : AVC
Format/Info                              : Advanced Video Codec
Format profile                           :
Format settings                          : CABAC / 5 Ref Frames
Format settings, CABAC                   : Yes
Format settings, Reference frames        : 5 frames
Codec ID                                 : V_MPEG4/ISO/AVC
Duration                                 : 1 h 38 min
Bit rate                                 : 13.6 Mb/s
Width                                    : 1 920 pixels
Height                                   : 800 pixels
Display aspect ratio                     : 2.40:1
Frame rate mode                          : Constant
Frame rate                               : 24.000 FPS
Color space                              : YUV
Chroma subsampling                       : 4:2:0
Bit depth                                : 8 bits
Scan type                                : Progressive
Bits/(Pixel*Frame)                       : 0.370
Stream size                              : 9.38 GiB (93%)
Title                                    : -EA
Writing library                          : x264 core 161 r3027+53 2464769 t_mod_New [(8 & 10) X86_64]
Encoding settings                        : cabac=1 / ref=5 / deblock=1:-3:-3 / analyse=0x3:0x133 / me=umh / subme=10 / psy=1 / fade_compensate=0.00 / psy_rd=0.97:0.00 / mixed_ref=1 / me_range=32 / chroma_me=1 / trellis=2 / 8x8dct=1 / cqm=0 / deadzone=21,11 / fast_pskip=0 / chroma_qp_offset=-2 / threads=18 / lookahead_threads=4 / sliced_threads=0 / nr=0 / decimate=0 / interlaced=0 / bluray_compat=0 / constrained_intra=0 / fgo=0 / bframes=10 / b_pyramid=2 / b_adapt=2 / b_bias=0 / direct=3 / weightb=1 / open_gop=0 / weightp=2 / keyint=240 / keyint_min=24 / scenecut=40 / intra_refresh=0 / rc_lookahead=60 / rc=crf / mbtree=0 / crf=16.4500 / qcomp=0.65 / qpmin=0:0:0 / qpmax=69:69:69 / qpstep=4 / vbv_maxrate=62500 / vbv_bufsize=78125 / crf_max=0.0 / nal_hrd=none / filler=0 / ip_ratio=1.35 / pb_ratio=1.25 / aq=3:0.85 / aq-sensitivity=10.00 / aq-factor=1.00:1.00:1.00 / aq2=0 / aq3=0
Language                                 : French
Default                                  : Yes
Forced                                   : No
Color range                              : Limited
Color primaries                          : BT.709
Transfer characteristics                 : BT.709
Matrix coefficients                      : BT.709

Audio
ID                                       : 2
Format                                   : E-AC-3
Format/Info                              : Enhanced AC-3
Commercial name                          : Dolby Digital Plus
Codec ID                                 : A_EAC3
Duration                                 : 1 h 38 min
Bit rate mode                            : Constant
Bit rate                                 : 1 023 kb/s
Channel(s)                               : 6 channels
Channel layout                           : L R C LFE Ls Rs
Sampling rate                            : 48.0 kHz
Frame rate                               : 93.750 FPS (512 SPF)
Compression mode                         : Lossy
Stream size                              : 720 MiB (7%)
Language                                 : French
Service kind                             : Complete Main
Default                                  : Yes
Forced                                   : No

Text #1
ID                                       : 3
Format                                   : UTF-8
Codec ID                                 : S_TEXT/UTF8
Codec ID/Info                            : UTF-8 Plain Text
Duration                                 : 1 h 37 min
Bit rate                                 : 26 b/s
Count of elements                        : 833
Stream size                              : 19.1 KiB (0%)
Title                                    : srt
Language                                 : English
Default                                  : Yes
Forced                                   : Yes

Text #2
ID                                       : 4
Format                                   : PGS
Muxing mode                              : zlib
Codec ID                                 : S_HDMV/PGS
Codec ID/Info                            : Picture based subtitle format used on BDs/HD-DVDs
Duration                                 : 1 h 38 min
Bit rate                                 : 22.7 kb/s
Count of elements                        : 1946
Stream size                              : 16.0 MiB (0%)
Title                                    : sup
Language                                 : French
Default                                  : No
Forced                                   : No

Menu
00:00:00.000                             : :Chapter 01
00:07:30.500                             : :Chapter 02
00:15:50.625                             : :Chapter 03
00:25:31.583                             : :Chapter 04
00:32:47.208                             : :Chapter 05
00:39:58.667                             : :Chapter 06
00:49:49.208                             : :Chapter 07
00:56:10.000                             : :Chapter 08
01:04:25.792                             : :Chapter 09
01:13:06.417                             : :Chapter 10
01:23:17.333                             : :Chapter 11
01:35:16.458                             : :Chapter 12





                                                                                                                                                                                                        
                                                                                                                                                                                                                                                                                                                                                                                                                                                                                                                                                                                                                                                                                                                                                                                                                                                        
7a9318e0b720b00d3b081830aab54cf3.zip (51.08 KB)

回复

使用道具 举报

百度云电影论坛 ( 辽ICP备17019482号-3 )

本网站所有资源来自网络,如无意中侵犯了您的权益,请发邮件至 [email protected],立即清除相关链接

GMT+8, 2021-1-24 03:31 , Processed in 0.096299 second(s), 22 queries .

Powered by Discuz! X3.2

© 2001-2013 Comsenz Inc.

快速回复 返回顶部 返回列表