百度云电影论坛

 找回密码
 立即注册

警告 The.Warning.2018.SPANISH.1080p.BluRay.x264.DD5.1-LHD 8.93GB

[复制链接]

百度云电影 发表于 2021-1-7 10:36:30 | 显示全部楼层 |阅读模式
-->
帖子完整标题:警告 The.Warning.2018.SPANISH.1080p.BluRay.x264.DD5.1-LHD 8.93GB





◎译  名 警告/The warning/恐吓/数字预警/死亡公式/绝命警告信/致命警告
◎片  名 El aviso
◎年  代 2018
◎产  地 西班牙
◎类  别 剧情 / 惊悚
◎语  言 西班牙语
◎上映日期 2018-03-23(西班牙) / 2019-03-29(中国大陆)
◎IMDb评分  5.9/10 from 5360 users
◎IMDb链接  
◎豆瓣评分 5.5/10 from 2966 users
◎豆瓣链接 
◎片  长 92分钟
◎导  演 丹尼尔·卡尔帕索罗 Daniel Calparsoro
◎编  剧 克里斯·斯帕林 Chris Sparling / 帕西·阿米祖加 Patxi Amezcua / 豪尔赫·格力加耶切瓦利亚 Jorge Guerricaechevarría
◎主  演 劳尔·阿雷瓦洛 Raúl Arévalo
       奥拉·加里多 Aura Garrido
       雨果·阿布斯 Hugo Arbues
       贝伦·奎斯塔 Belén Cuesta
       安东尼奥·德琴特 Antonio Dechent
       埃托尔·卢纳 Aitor Luna
       帕特里夏·维柯 Patricia Vico
       路易斯·卡叶赫 Luis Callejo
       胡丽叶塔·塞拉诺 Julieta Serrano
       豪尔赫·乌松 Jorge Usón
       Sergio Mur
       胡安·洛佩兹 Juan López
       阿尔弗雷多·维拉 Alfredo Villa
       安东尼奥·杜兰·莫里斯 Antonio Durán 'Morris'

◎标  签 西班牙 | 悬疑 | 惊悚 | 烧脑 | 剧情 | 2018 | 奇幻 | 犯罪

◎简  介

  在某间加油站的便利商店,每隔一段时间就会发生凶杀案,这是随机事件?还是神秘的巧合?在又一次凶杀案发生之后,一位天才数学家终于发现反转命运的秘密,竟然藏在一串数字里。他依循神秘的数字线索发掘真相,试图挽救下一个受害者,一个十岁小男孩的生命,但随着警告信的日期接近,他还有机会拯救人命吗?
Video
ID                                       : 1
Format                                   : AVC
Format/Info                              : Advanced Video Codec
Format profile                           :
Format settings                          : CABAC / 5 Ref Frames
Format settings, CABAC                   : Yes
Format settings, Reference frames        : 5 frames
Codec ID                                 : V_MPEG4/ISO/AVC
Duration                                 : 1 h 32 min
Bit rate                                 : 13.3 Mb/s
Width                                    : 1 920 pixels
Height                                   : 804 pixels
Display aspect ratio                     : 2.40:1
Frame rate mode                          : Constant
Frame rate                               : 23.976 (24000/1001/189150) FPS
Color space                              : YUV
Chroma subsampling                       : 4:2:0
Bit depth                                : 8 bits
Scan type                                : Progressive
Bits/(Pixel*Frame)                       : 0.360
Stream size                              : 8.62 GiB (97%)
Writing library                          : x264 core 142 r2431+42 c69a006 tMod [:2:0 X86_64]
Encoding settings                        : cabac=1 / ref=5 / deblock=1:-3:-3 / analyse=0x3:0x113 / me=umh / subme=11 / psy=1 / fade_compensate=0.00 / psy_rd=1.05:0.00 / mixed_ref=1 / me_range=32 / chroma_me=1 / trellis=2 / 8x8dct=1 / cqm=0 / deadzone=21,11 / fast_pskip=0 / chroma_qp_offset=-2 / threads=72 / lookahead_threads=6 / sliced_threads=0 / nr=0 / decimate=0 / interlaced=0 / bluray_compat=0 / constrained_intra=0 / fgo=0 / bframes=8 / b_pyramid=2 / b_adapt=2 / b_bias=0 / direct=3 / weightb=1 / open_gop=0 / weightp=2 / keyint=250 / keyint_min=23 / scenecut=40 / intra_refresh=0 / rc_lookahead=60 / rc=crf / mbtree=0 / crf=16.7000 / qcomp=0.60 / qpmin=0:0:0 / qpmax=69:69:69 / qpstep=4 / vbv_maxrate=62500 / vbv_bufsize=78125 / crf_max=0.0 / nal_hrd=none / filler=0 / ip_ratio=1.30 / pb_ratio=1.20 / aq=3:0.80 / aq-sensitivity=10.00 / aq-factor=1.00:1.00:1.00 / aq2=0 / aq3=0
Language                                 : English
Default                                  : Yes
Forced                                   : No
Color range                              : Limited
Color primaries                          : BT.709
Transfer characteristics                 : BT.709
Matrix coefficients                      : BT.709

Audio
ID                                       : 2
Format                                   : AC-3
Format/Info                              : Audio Coding 3
Commercial name                          : Dolby Digital
Codec ID                                 : A_AC3
Duration                                 : 1 h 32 min
Bit rate mode                            : Constant
Bit rate                                 : 448 kb/s
Channel(s)                               : 6 channels
Channel layout                           : L R C LFE Ls Rs
Sampling rate                            : 48.0 kHz
Frame rate                               : 31.250 FPS (1536 SPF)
Compression mode                         : Lossy
Stream size                              : 297 MiB (3%)
Language                                 : Spanish
Service kind                             : Complete Main
Default                                  : Yes
Forced                                   : No

Text #1
ID                                       : 3
Format                                   : UTF-8
Codec ID                                 : S_TEXT/UTF8
Codec ID/Info                            : UTF-8 Plain Text
Duration                                 : 1 h 26 min
Bit rate                                 : 39 b/s
Count of elements                        : 794
Stream size                              : 25.1 KiB (0%)
Title                                    : SRT
Language                                 : English
Default                                  : Yes
Forced                                   : No

Text #2
ID                                       : 4
Format                                   : PGS
Muxing mode                              : zlib
Codec ID                                 : S_HDMV/PGS
Codec ID/Info                            : Picture based subtitle format used on BDs/HD-DVDs
Duration                                 : 1 h 28 min
Bit rate                                 : 17.9 kb/s
Count of elements                        : 1595
Stream size                              : 11.4 MiB (0%)
Language                                 : English
Default                                  : No
Forced                                   : No

Text #3
ID                                       : 5
Format                                   : PGS
Muxing mode                              : zlib
Codec ID                                 : S_HDMV/PGS
Codec ID/Info                            : Picture based subtitle format used on BDs/HD-DVDs
Duration                                 : 1 h 27 min
Bit rate                                 : 18.1 kb/s
Count of elements                        : 1502
Stream size                              : 11.3 MiB (0%)
Title                                    : CHS
Language                                 : Chinese
Default                                  : No
Forced                                   : No

Text #4
ID                                       : 6
Format                                   : PGS
Muxing mode                              : zlib
Codec ID                                 : S_HDMV/PGS
Codec ID/Info                            : Picture based subtitle format used on BDs/HD-DVDs
Duration                                 : 1 h 27 min
Bit rate                                 : 18.8 kb/s
Count of elements                        : 1502
Stream size                              : 11.8 MiB (0%)
Title                                    : CHT
Language                                 : Chinese
Default                                  : No
Forced                                   : No

Menu
00:00:00.000                             : :绗?01 绔?
00:06:44.321                             : :绗?02 绔?
00:15:18.793                             : :绗?03 绔?
00:24:20.042                             : :绗?04 绔?
00:33:05.066                             : :绗?05 绔?
00:39:35.540                             : :绗?06 绔?
00:47:03.320                             : :绗?07 绔?
00:53:11.939                             : :绗?08 绔?
01:00:50.730                             : :绗?09 绔?
01:08:06.833                             : :绗?10 绔?
01:32:31.212                             : :绗?11 绔?





                                                                                                                                                                                                        
                                                                                                                                                                                                                                                                                                                                                                                                                                                                                                                                                                                                                                                                                                                                                                                                                                                        
d34ce433455420c9e519371a6b8badbe.zip (45.3 KB)

回复

使用道具 举报

百度云电影论坛 ( 辽ICP备17019482号-3 )

本网站所有资源来自网络,如无意中侵犯了您的权益,请发邮件至 [email protected],立即清除相关链接

GMT+8, 2021-1-20 06:16 , Processed in 0.093036 second(s), 22 queries .

Powered by Discuz! X3.2

© 2001-2013 Comsenz Inc.

快速回复 返回顶部 返回列表