百度云电影论坛

 找回密码
 立即注册

阿拉丁与神灯2 Alad.2.2018.FRENCH.1080p.BluRay.x264.DTS-EDPH 13.80GB

[复制链接]

百度云电影 发表于 2021-1-4 09:48:09 | 显示全部楼层 |阅读模式
-->
帖子完整标题:阿拉丁与神灯2 Alad.2.2018.FRENCH.1080p.BluRay.x264.DTS-EDPH 13.80GB





◎译  名 阿拉丁与神灯2/Aladin 2
◎片  名 Alad'2
◎年  代 2018
◎产  地 法国
◎类  别 喜剧
◎语  言 法语
◎上映日期 2018-10-03(法国)
◎IMDb评分  3.4/10 from 818 users
◎IMDb链接  
◎豆瓣评分 5.4/10 from 128 users
◎豆瓣链接 
◎片  长 98分钟
◎导  演 Lionel Steketee
◎编  剧 大卫·科恩 Daive Cohen
◎主  演 凯文·亚当斯 Kev Adams
       热拉尔·德帕迪约 Gérard Depardieu
       诺米·勒努瓦 Noémie Lenoir
       贾梅尔·杜布兹 Jamel Debbouze
       凡妮莎·吉德 Vanessa Guide
       朗齐·贝迪亚 Ramzy Bedia
       埃里克·朱多尔 Eric Judor

◎标  签 喜剧 | 法国 | 奇幻 | 2018 | 搞笑 | 阿拉丁 | 法国电影 | 冒险

◎简  介

  阿拉丁王子在宫殿里感到无聊。他怀念过去的冒险生活,穿着华丽的君主服装,他觉得自己不合法。沙阿·扎曼(Shah Zaman)是一个无情的独裁者,他决定娶公主为妻。阿拉丁被迫逃离,去找回他的旧天才。这是他拯救公主、解放巴格达的唯一机会。沙阿·扎曼利用他的对手缺席的机会,想尽一切办法让公主出丑。从恐吓到诱惑,他不惜一切代价让她成为他的妻子。在经历了一段充满陷阱的漫长旅程后,阿拉丁终于回到了巴格达,在那里他将不得不面对武装警卫、黎塞留人、沙阿·扎曼和沙阿·扎曼本人的邪恶天才。最重要的是,他必须克服一个他没有预料到的障碍:公主的怀疑。@http://www.renrendianyingwang.cn/
Video
ID                                       : 1
Format                                   : AVC
Format/Info                              : Advanced Video Codec
Format profile                           :
Format settings                          : CABAC / 5 Ref Frames
Format settings, CABAC                   : Yes
Format settings, Reference frames        : 5 frames
Codec ID                                 : V_MPEG4/ISO/AVC
Duration                                 : 1 h 37 min
Bit rate                                 : 18.7 Mb/s
Width                                    : 1 920 pixels
Height                                   : 804 pixels
Display aspect ratio                     : 2.40:1
Frame rate mode                          : Constant
Frame rate                               : 23.976 (24000/1001/189150) FPS
Color space                              : YUV
Chroma subsampling                       : 4:2:0
Bit depth                                : 8 bits
Scan type                                : Progressive
Bits/(Pixel*Frame)                       : 0.505
Stream size                              : 12.8 GiB (93%)
Writing library                          : x264 core 161 r3027 4121277
Encoding settings                        : cabac=1 / ref=5 / deblock=1:-3:-3 / analyse=0x3:0x133 / me=umh / subme=11 / psy=1 / psy_rd=1.02:0.00 / mixed_ref=1 / me_range=32 / chroma_me=1 / trellis=2 / 8x8dct=1 / cqm=0 / deadzone=21,11 / fast_pskip=0 / chroma_qp_offset=-2 / threads=12 / lookahead_threads=3 / sliced_threads=0 / nr=0 / decimate=0 / interlaced=0 / bluray_compat=0 / constrained_intra=0 / bframes=16 / b_pyramid=2 / b_adapt=2 / b_bias=0 / direct=3 / weightb=1 / open_gop=0 / weightp=2 / keyint=250 / keyint_min=23 / scenecut=40 / intra_refresh=0 / rc_lookahead=250 / rc=crf / mbtree=0 / crf=14.9 / qcomp=0.65 / qpmin=0 / qpmax=69 / qpstep=4 / vbv_maxrate=62500 / vbv_bufsize=78125 / crf_max=0.0 / nal_hrd=none / filler=0 / ip_ratio=1.30 / pb_ratio=1.20 / aq=3:0.80
Default                                  : No
Forced                                   : No
Color range                              : Limited
Color primaries                          : BT.709
Matrix coefficients                      : BT.709

Audio
ID                                       : 2
Format                                   : DTS
Format/Info                              : Digital Theater Systems
Codec ID                                 : A_DTS
Duration                                 : 1 h 37 min
Bit rate mode                            : Constant
Bit rate                                 : 1 509 kb/s
Channel(s)                               : 6 channels
Channel layout                           : C L R Ls Rs LFE
Sampling rate                            : 48.0 kHz
Frame rate                               : 93.750 FPS (512 SPF)
Bit depth                                : 24 bits
Compression mode                         : Lossy
Stream size                              : 1.03 GiB (7%)
Language                                 : French
Default                                  : No
Forced                                   : No

Text
ID                                       : 3
Format                                   : UTF-8
Codec ID                                 : S_TEXT/UTF8
Codec ID/Info                            : UTF-8 Plain Text
Duration                                 : 1 h 35 min
Bit rate                                 : 66 b/s
Count of elements                        : 1671
Stream size                              : 46.5 KiB (0%)
Language                                 : English
Default                                  : Yes
Forced                                   : No

Menu
00:00:00.000                             : en:Chapter 01
00:07:31.993                             : en:Chapter 02
00:16:00.584                             : en:Chapter 03
00:25:50.757                             : en:Chapter 04
00:35:22.870                             : en:Chapter 05
00:46:03.218                             : en:Chapter 06
00:54:19.798                             : en:Chapter 07
01:03:30.640                             : en:Chapter 08
01:11:25.531                             : en:Chapter 09
01:19:56.166                             : en:Chapter 10
01:28:22.755                             : en:Chapter 11
01:32:54.986                             : en:Chapter 12





                                                                                                                                                                                                        
                                                                                                                                                                                                                                                                                                                                                                                                                                                                                                                                                                                                                                                                                                                                                                                                                                                        
7b676b8caa5fad53adef2331501dba5d.zip (69.63 KB)

回复

使用道具 举报

百度云电影论坛 ( 辽ICP备17019482号-3 )

本网站所有资源来自网络,如无意中侵犯了您的权益,请发邮件至 [email protected],立即清除相关链接

GMT+8, 2021-1-24 04:07 , Processed in 0.100215 second(s), 22 queries .

Powered by Discuz! X3.2

© 2001-2013 Comsenz Inc.

快速回复 返回顶部 返回列表