百度云电影论坛

 找回密码
 立即注册

邻家新男孩 Ella.Bella.Bingo.2020.DUBBED.720p.BluRay.x264-RCDiVX 2.61GB

[复制链接]

百度云电影 发表于 2020-12-31 09:50:55 | 显示全部楼层 |阅读模式
-->
帖子完整标题:邻家新男孩 Ella.Bella.Bingo.2020.DUBBED.720p.BluRay.x264-RCDiVX 2.61GB





◎译  名 邻家新男孩/Ella Bella Bingo/贝拉·宾戈
◎片  名 Elleville Elfrid
◎年  代 2020
◎产  地 挪威
◎类  别 动画
◎语  言 挪威语,英语
◎上映日期 2020-01-24(挪威)
◎IMDb评分  4.5/10 from 136 users
◎IMDb链接  
◎豆瓣评分 /10 from 0 users
◎豆瓣链接 
◎片  长 75分钟
◎导  演 Frank Mosvold
◎编  剧 杰弗里·海尔顿 Jeffrey Hylton
◎主  演 莎莫·芳塔娜 Summer Fontana
       比约恩·桑德奎斯特 Bj?rn Sundquist
       加德·B·艾兹沃尔德 Gard B. Eidsvold
       Hege Sch?yen

◎标  签 动画 | 挪威 | 2020 | HD1080P-Mp4Ba | ACG | 挪威电影 | 挪威动画片 | 动画电影

◎简  介

  埃拉贝拉宾戈(埃尔维尔埃尔弗里德)和亨利是最好的朋友,但有一天,一个新的男孩搬进附近,一切都改变了。
Video
ID                                       : 1
Format                                   : AVC
Format/Info                              : Advanced Video Codec
Format profile                           :
Format settings                          : CABAC / 12 Ref Frames
Format settings, CABAC                   : Yes
Format settings, Reference frames        : 12 frames
Codec ID                                 : V_MPEG4/ISO/AVC
Duration                                 : 1 h 19 min
Bit rate                                 : 4 012 kb/s
Width                                    : 1 280 pixels
Height                                   : 536 pixels
Display aspect ratio                     : 2.40:1
Frame rate mode                          : Constant
Frame rate                               : 24.000 FPS
Color space                              : YUV
Chroma subsampling                       : 4:2:0
Bit depth                                : 8 bits
Scan type                                : Progressive
Bits/(Pixel*Frame)                       : 0.244
Stream size                              : 2.23 GiB (85%)
Writing library                          : x264 core 161 r3027 4121277
Encoding settings                        : cabac=1 / ref=12 / deblock=1:1:1 / analyse=0x3:0x133 / me=umh / subme=9 / psy=1 / psy_rd=0.40:0.00 / mixed_ref=1 / me_range=16 / chroma_me=1 / trellis=2 / 8x8dct=1 / cqm=0 / deadzone=21,11 / fast_pskip=1 / chroma_qp_offset=-2 / threads=17 / lookahead_threads=1 / sliced_threads=0 / nr=0 / decimate=1 / interlaced=0 / bluray_compat=0 / constrained_intra=0 / bframes=5 / b_pyramid=2 / b_adapt=2 / b_bias=0 / direct=3 / weightb=1 / open_gop=0 / weightp=2 / keyint=250 / keyint_min=24 / scenecut=40 / intra_refresh=0 / rc_lookahead=60 / rc=crf / mbtree=1 / crf=15.5 / qcomp=0.60 / qpmin=0 / qpmax=69 / qpstep=4 / ip_ratio=1.40 / aq=1:0.60
Default                                  : Yes
Forced                                   : No

Audio
ID                                       : 2
Format                                   : AC-3
Format/Info                              : Audio Coding 3
Commercial name                          : Dolby Digital
Codec ID                                 : A_AC3
Duration                                 : 1 h 19 min
Bit rate mode                            : Constant
Bit rate                                 : 640 kb/s
Channel(s)                               : 6 channels
Channel layout                           : L R C LFE Ls Rs
Sampling rate                            : 48.0 kHz
Frame rate                               : 31.250 FPS (1536 SPF)
Compression mode                         : Lossy
Stream size                              : 364 MiB (14%)
Language                                 : English
Service kind                             : Complete Main
Default                                  : Yes
Forced                                   : No

Text #1
ID                                       : 3
Format                                   : PGS
Muxing mode                              : zlib
Codec ID                                 : S_HDMV/PGS
Codec ID/Info                            : Picture based subtitle format used on BDs/HD-DVDs
Duration                                 : 1 h 18 min
Bit rate                                 : 29.6 kb/s
Count of elements                        : 1538
Stream size                              : 16.5 MiB (1%)
Title                                    : Danish
Language                                 : Danish
Default                                  : No
Forced                                   : No

Text #2
ID                                       : 4
Format                                   : PGS
Muxing mode                              : zlib
Codec ID                                 : S_HDMV/PGS
Codec ID/Info                            : Picture based subtitle format used on BDs/HD-DVDs
Duration                                 : 1 h 18 min
Bit rate                                 : 28.5 kb/s
Count of elements                        : 1434
Stream size                              : 15.9 MiB (1%)
Title                                    : Finnish
Language                                 : Finnish
Default                                  : No
Forced                                   : No

Text #3
ID                                       : 5
Format                                   : PGS
Muxing mode                              : zlib
Codec ID                                 : S_HDMV/PGS
Codec ID/Info                            : Picture based subtitle format used on BDs/HD-DVDs
Duration                                 : 1 h 17 min
Bit rate                                 : 26.7 kb/s
Count of elements                        : 1260
Stream size                              : 14.8 MiB (1%)
Title                                    : Swedish
Language                                 : Swedish
Default                                  : No
Forced                                   : No

Menu
00:00:00.000                             : en:Chapter 01
00:08:58.250                             : en:Chapter 02
00:20:20.083                             : en:Chapter 03
00:28:47.625                             : en:Chapter 04
00:41:40.417                             : en:Chapter 05
00:51:59.292                             : en:Chapter 06
01:01:46.250                             : en:Chapter 07
01:11:07.833                             : en:Chapter 08
01:19:27.708                             : en:Chapter 09





                                                                                                                                                                                                        
                                                                                                                                                                                                                                                                                                                                                                                                                                                                                                                                                                                                                                                                                                                                                                                                                                                        
77c59c9dd40215228a93d5dc55fc3139.zip (26.8 KB)

回复

使用道具 举报

百度云电影论坛 ( 辽ICP备17019482号-3 )

本网站所有资源来自网络,如无意中侵犯了您的权益,请发邮件至 [email protected],立即清除相关链接

GMT+8, 2021-1-16 22:39 , Processed in 0.094709 second(s), 22 queries .

Powered by Discuz! X3.2

© 2001-2013 Comsenz Inc.

快速回复 返回顶部 返回列表