百度云电影论坛

 找回密码
 立即注册

死亡天使 El.Angel.2018.SPANISH.1080p.BluRay.x264.DTS-CHD 9.01GB

[复制链接]

百度云电影 发表于 2020-10-18 08:34:52 | 显示全部楼层 |阅读模式
帖子完整标题:死亡天使 El.Angel.2018.SPANISH.1080p.BluRay.x264.DTS-CHD 9.01GB





◎译  名 死亡天使/L'Ange/The Angel/天使怎么了(台)/爱杀罪天使(港)
◎片  名 El ángel
◎年  代 2018
◎产  地 阿根廷,西班牙
◎类  别 剧情 / 同性 / 传记 / 犯罪
◎语  言 西班牙语
◎上映日期 2018-05-12(戛纳电影节) / 2018-08-09(阿根廷)
◎IMDb评分  7/10 from 8573 users
◎片  长 118分钟
◎导  演 路易斯·奥特加 Luis Ortega
◎编  剧 塞尔吉奥·奥尔金 Sergio Olguín / 路易斯·奥特加 Luis Ortega / 鲁道夫·帕拉西奥斯 Rodolfo Palacios
◎主  演 洛伦佐·法罗 Lorenzo Ferro
       奇诺·达林 Chino Darín
       丹尼尔·凡尼戈 Daniel Fanego
       梅赛黛斯·莫朗 Mercedes Morán
       玛莱娜·维拉 Malena Villa
       塞西莉亚·罗特 Cecilia Roth
       索菲亚·伊内斯·托尔内 Sofía Inés Torner
       皮特·蓝萨尼 Peter Lanzani
       马塞洛·坎切米 Marcelo Cancemi
       路易斯·尼科 Luis Gnecco
       威廉·普罗赛克 William Prociuk

◎标  签 犯罪 | 阿根廷 | 同性 | 剧情 | 传记 | 2018 | LGBT | 西班牙

◎简  介

  布宜诺斯艾利斯,1971年。Carlitos是个17岁的青少年。他拥有常人难以抗拒的天使般的面庞。不论他想得到什么,他总能心想事成。在学校,他与Ramon不期而遇。两人组成了魅力难当的美男二人组。他们很快踏上了一条以偷盗、谎言,甚至杀戮组成的堕落之路,而这只是他们表达自我的一种方式。

◎获奖情况

  第71届戛纳电影节 ?(2018)
  一种关注单元一种关注大奖(提名) 路易斯·奥特加
  同志金棕榈奖(提名) 路易斯·奥特加
  
  第33届西班牙戈雅奖 ?(2019)
  最佳伊比利亚美洲电影(提名)
Video
ID                                       : 1
Format                                   : AVC
Format/Info                              : Advanced Video Codec
Format settings                          : CABAC / 4 Ref Frames
Format settings, CABAC                   : Yes
Format settings, ReFrames                : 4 frames
Codec ID                                 : V_MPEG4/ISO/AVC
Duration                                 : 1 h 54 min
Bit rate                                 : 10.5 Mb/s
Width                                    : 1 920 pixels
Height                                   : 1 036 pixels
Display aspect ratio                     : 1.85:1
Frame rate mode                          : Constant
Frame rate                               : 24.000 FPS
Color space                              : YUV
Chroma subsampling                       : 4:2:0
Bit depth                                : 8 bits
Scan type                                : Progressive
Bits/(Pixel*Frame)                       : 0.220
Stream size                              : 8.39 GiB (93%)
Writing library                          : x264 core 148 r2762+56 6284cf3 t_mod_Custom  
Encoding settings                        : cabac=1 / ref=4 / deblock=1:-3:-3 / analyse=0x3:0x133 / me=umh / subme=10 / psy=1 / fade_compensate=0.00 / psy_rd=1.00:0.15 / mixed_ref=1 / me_range=32 / chroma_me=1 / trellis=2 / 8x8dct=1 / cqm=0 / deadzone=21,11 / fast_pskip=0 / chroma_qp_offset=-3 / threads=6 / lookahead_threads=1 / sliced_threads=0 / nr=0 / decimate=0 / interlaced=0 / bluray_compat=0 / constrained_intra=0 / fgo=0 / bframes=10 / b_pyramid=2 / b_adapt=2 / b_bias=0 / direct=3 / weightb=1 / open_gop=0 / weightp=2 / keyint=240 / keyint_min=24 / scenecut=40 / intra_refresh=0 / rc_lookahead=60 / rc=crf / mbtree=1 / crf=13.5000 / qcomp=0.40 / qpmin=0:0:0 / qpmax=69:69:69 / qpstep=4 / vbv_maxrate=62500 / vbv_bufsize=78125 / crf_max=0.0 / nal_hrd=none / filler=0 / ip_ratio=1.40 / aq=1:0.90 / aq-sensitivity=10.00 / aq-factor=1.00:1.00:1.00 / aq2=0 / aq3=0
Default                                  : Yes
Forced                                   : No

Audio
ID                                       : 2
Format                                   : DTS
Format/Info                              : Digital Theater Systems
Codec ID                                 : A_DTS
Duration                                 : 1 h 54 min
Bit rate mode                            : Constant
Bit rate                                 : 768 kb/s
Channel(s)                               : 6 channels
Channel layout                           : C L R Ls Rs LFE
Sampling rate                            : 48.0 kHz
Frame rate                               : 93.750 FPS (512 SPF)
Bit depth                                : 24 bits
Compression mode                         : Lossy
Stream size                              : 630 MiB (7%)
Language                                 : Spanish
Default                                  : Yes
Forced                                   : No

Text
ID                                       : 3
Format                                   : UTF-8
Codec ID                                 : S_TEXT/UTF8
Codec ID/Info                            : UTF-8 Plain Text
Duration                                 : 1 h 46 min
Bit rate                                 : 32 b/s
Count of elements                        : 867
Stream size                              : 25.3 KiB (0%)
Language                                 : English
Default                                  : Yes
Forced                                   : Yes





                                                                                                                                                                                                        


9fec0373c835f7dc3e3bae9d45549f97.zip (46.5 KB)

回复

使用道具 举报

百度云电影论坛 ( 辽ICP备17019482号-3 )

本网站所有资源来自网络,如无意中侵犯了您的权益,请发邮件至 [email protected],立即清除相关链接

GMT+8, 2020-10-26 14:30 , Processed in 0.099011 second(s), 22 queries .

Powered by Discuz! X3.2

© 2001-2013 Comsenz Inc.

快速回复 返回顶部 返回列表