百度云电影论坛

 找回密码
 立即注册

冰雪女王4:魔镜世界/冰雪女王:镜子世界 The.Snow.Queen.Mirrorlan...

[复制链接]

百度云电影 发表于 2020-10-11 11:28:22 | 显示全部楼层 |阅读模式
帖子完整标题:冰雪女王4:魔镜世界/冰雪女王:镜子世界 The.Snow.Queen.Mirrorlands.2018.720p.BluRay.x264-WoAT 2.55GB





◎译  名 冰雪女王4:魔镜世界/冰雪女王:镜子世界/冰雪女王4:镜子世界
◎片  名 The Snow Queen: Mirrorlands
◎年  代 2018
◎产  地 俄罗斯
◎类  别 动画 / 家庭 / 奇幻 / 冒险
◎语  言 俄语
◎上映日期 2018-12-20(俄罗斯) / 2019-08-02(中国大陆)
◎片  长 86分钟
◎导  演 罗伯特·伦塞 Robert Lence / 阿列克谢·特斯蒂斯林 Aleksey Tsitsilin / 刘凌峰  
◎编  剧 安德烈·科林考夫 Andrey Korenkov / 罗伯特·伦塞 Robert Lence / 弗拉迪米尔·尼古拉耶夫 Vladimir Nikolaev / 阿列克谢·特斯蒂斯林 Aleksey Tsitsilin / 阿列克谢·斯梅斯洛夫 Aleksey Zamyslov

◎标  签 动画 | 奇幻 | 俄罗斯 | 温情 | 2019 | 童话 | 公主 | 电影

◎简  介

  格尔达与凯以及他们的父母生活在由哈拉德统治的繁荣国度里。国王哈拉德不仅是名科学家,而且还是一名发明家。格尔达因她魔法技艺不佳而十分烦恼,因为她的家人都是技艺精湛的魔法师。
  
  当一件魔法神器在冰雪女王城堡的废墟中被发现时事情发生了转变,这件魔法神器可以将所有的魔法师放逐到镜像世界中,而这里是一个没有退路的地方。
  
  现在,只有格尔达可以解救她的家人,而解救的唯一方式是需要她联手她的前敌人—冰雪女王。
Video
ID                                       : 1
Format                                   : AVC
Format/Info                              : Advanced Video Codec
Format settings                          : CABAC / 8 Ref Frames
Format settings, CABAC                   : Yes
Format settings, Reference frames        : 8 frames
Codec ID                                 : V_MPEG4/ISO/AVC
Duration                                 : 1 h 27 min
Bit rate                                 : 3 521 kb/s
Width                                    : 1 280 pixels
Height                                   : 536 pixels
Display aspect ratio                     : 2.40:1
Frame rate mode                          : Constant
Frame rate                               : 23.976 (24000/1001/189150) FPS
Color space                              : YUV
Chroma subsampling                       : 4:2:0
Bit depth                                : 8 bits
Scan type                                : Progressive
Bits/(Pixel*Frame)                       : 0.214
Stream size                              : 2.15 GiB (84%)
Writing library                          : x264 core 161 r3018 db0d417
Encoding settings                        : cabac=1 / ref=8 / deblock=1:-3:-3 / analyse=0x3:0x133 / me=umh / subme=9 / psy=1 / psy_rd=1.00:0.00 / mixed_ref=1 / me_range=32 / chroma_me=1 / trellis=2 / 8x8dct=1 / cqm=0 / deadzone=21,11 / fast_pskip=0 / chroma_qp_offset=-2 / threads=12 / lookahead_threads=2 / sliced_threads=0 / nr=0 / decimate=0 / interlaced=0 / bluray_compat=0 / constrained_intra=0 / bframes=9 / b_pyramid=2 / b_adapt=2 / b_bias=0 / direct=3 / weightb=1 / open_gop=0 / weightp=2 / keyint=250 / keyint_min=23 / scenecut=40 / intra_refresh=0 / rc=crf / mbtree=0 / crf=17.0 / qcomp=0.60 / qpmin=0 / qpmax=69 / qpstep=4 / ip_ratio=1.40 / pb_ratio=1.30 / aq=3:0.88
Default                                  : Yes
Forced                                   : No
Color range                              : Limited
Matrix coefficients                      : BT.709

Audio
ID                                       : 2
Format                                   : AC-3
Format/Info                              : Audio Coding 3
Commercial name                          : Dolby Digital
Codec ID                                 : A_AC3
Duration                                 : 1 h 27 min
Bit rate mode                            : Constant
Bit rate                                 : 640 kb/s
Channel(s)                               : 6 channels
Channel layout                           : L R C LFE Ls Rs
Sampling rate                            : 48.0 kHz
Frame rate                               : 31.250 FPS (1536 SPF)
Compression mode                         : Lossy
Stream size                              : 400 MiB (15%)
Title                                    : English
Language                                 : English
Service kind                             : Complete Main
Default                                  : No
Forced                                   : No

Text
ID                                       : 3
Format                                   : PGS
Muxing mode                              : zlib
Codec ID                                 : S_HDMV/PGS
Codec ID/Info                            : Picture based subtitle format used on BDs/HD-DVDs
Duration                                 : 1 h 26 min
Bit rate                                 : 29.8 kb/s
Count of elements                        : 2256
Stream size                              : 18.4 MiB (1%)
Title                                    : French
Language                                 : French
Default                                  : No
Forced                                   : No

Menu
00:00:00.000                             : en:Chapter 01
00:05:22.072                             : en:Chapter 02
00:10:46.896                             : en:Chapter 03
00:16:47.882                             : en:Chapter 04
00:26:58.325                             : en:Chapter 05
00:34:17.097                             : en:Chapter 06
00:40:06.863                             : en:Chapter 07
00:49:34.555                             : en:Chapter 08
00:55:46.343                             : en:Chapter 09
01:03:37.605                             : en:Chapter 10
01:09:15.526                             : en:Chapter 11
01:17:56.380                             : en:Chapter 12





                                                                                                                                                                                                        
                                                                                                                                                                                                                                             
f1b1d06473ef803d40af03cfe1a2209f.zip (27.01 KB)

回复

使用道具 举报

百度云电影论坛 ( 辽ICP备17019482号-3 )

本网站所有资源来自网络,如无意中侵犯了您的权益,请发邮件至 [email protected],立即清除相关链接

GMT+8, 2020-10-23 02:03 , Processed in 0.109300 second(s), 22 queries .

Powered by Discuz! X3.2

© 2001-2013 Comsenz Inc.

快速回复 返回顶部 返回列表