百度云电影论坛

 找回密码
 立即注册

捷克伙伴:寻找伊日·门泽尔 CzechMate.In.Search.of.Jiri.Menzel.2018.7... ...

[复制链接]

百度云电影 发表于 2020-10-11 11:26:23 | 显示全部楼层 |阅读模式

帖子完整标题:捷克伙伴:寻找伊日·门泽尔 CzechMate.In.Search.of.Jiri.Menzel.2018.720p.BluRay.x264-BiPOLAR 17.09GB





◎译  名 捷克伙伴:寻找伊日·门泽尔
◎片  名 CzechMate: In Search of Jirí Menzel
◎年  代 2018
◎产  地 印度
◎类  别 纪录片
◎语  言 英语,波兰语
◎上映日期 2018(印度)
◎IMDb评分  7.4/10 from 17 users
◎片  长 446分钟
◎导  演 施云德拉·塞恩·邓加佩 Shivendra Singh Dungarpur
◎编  剧 施云德拉·塞恩·邓加佩 Shivendra Singh Dungarpur
◎主  演 伊日·门泽尔 Jirí Menzel
       米洛斯·福尔曼 Milo? Forman
       朱拉·亚库比斯克 Juraj Jakubisko
       杜桑·哈那克 Dusan Hanák

◎标  签 Documentary

◎简  介

  CzechMate - in Search of Jiri Menzel directed by Shivendra Singh Dungarpur, is an in-depth exploration of the work of renowned Czech director Jiri Menzel and the Czech New Wave.
Video
ID                                       : 1
Format                                   : AVC
Format/Info                              : Advanced Video Codec
Format settings                          : CABAC / 9 Ref Frames
Format settings, CABAC                   : Yes
Format settings, Reference frames        : 9 frames
Codec ID                                 : V_MPEG4/ISO/AVC
Duration                                 : 7 h 27 min
Bit rate                                 : 4 813 kb/s
Width                                    : 1 280 pixels
Height                                   : 720 pixels
Display aspect ratio                     : 16:9
Frame rate mode                          : Constant
Frame rate                               : 24.000 FPS
Color space                              : YUV
Chroma subsampling                       : 4:2:0
Bit depth                                : 8 bits
Scan type                                : Progressive
Bits/(Pixel*Frame)                       : 0.218
Stream size                              : 15.0 GiB (88%)
Writing library                          : x264 core 161 r3018 db0d417
Encoding settings                        : cabac=1 / ref=9 / deblock=1:-3:-3 / analyse=0x3:0x133 / me=umh / subme=10 / psy=1 / psy_rd=1.00:0.15 / mixed_ref=1 / me_range=24 / chroma_me=1 / trellis=2 / 8x8dct=1 / cqm=0 / deadzone=21,11 / fast_pskip=1 / chroma_qp_offset=-3 / threads=18 / lookahead_threads=3 / sliced_threads=0 / nr=0 / decimate=1 / interlaced=0 / bluray_compat=0 / constrained_intra=0 / bframes=8 / b_pyramid=2 / b_adapt=2 / b_bias=0 / direct=3 / weightb=1 / open_gop=0 / weightp=2 / keyint=250 / keyint_min=24 / scenecut=40 / intra_refresh=0 / rc_lookahead=60 / rc=crf / mbtree=1 / crf=18.0 / qcomp=0.60 / qpmin=0 / qpmax=69 / qpstep=4 / ip_ratio=1.40 / aq=3:0.60
Language                                 : English
Default                                  : Yes
Forced                                   : No
Color range                              : Limited
Matrix coefficients                      : BT.709

Audio
ID                                       : 2
Format                                   : AC-3
Format/Info                              : Audio Coding 3
Commercial name                          : Dolby Digital
Codec ID                                 : A_AC3
Duration                                 : 7 h 27 min
Bit rate mode                            : Constant
Bit rate                                 : 640 kb/s
Channel(s)                               : 6 channels
Channel layout                           : L R C LFE Ls Rs
Sampling rate                            : 48.0 kHz
Frame rate                               : 31.250 FPS (1536 SPF)
Compression mode                         : Lossy
Stream size                              : 2.00 GiB (12%)
Language                                 : Czech
Service kind                             : Complete Main
Default                                  : Yes
Forced                                   : No

Text #1
ID                                       : 3
Format                                   : UTF-8
Codec ID                                 : S_TEXT/UTF8
Codec ID/Info                            : UTF-8 Plain Text
Duration                                 : 7 h 17 min
Bit rate                                 : 64 b/s
Count of elements                        : 4565
Stream size                              : 208 KiB (0%)
Title                                    : English
Language                                 : English
Default                                  : Yes
Forced                                   : Yes

Text #2
ID                                       : 4
Format                                   : PGS
Muxing mode                              : zlib
Codec ID                                 : S_HDMV/PGS
Codec ID/Info                            : Picture based subtitle format used on BDs/HD-DVDs
Duration                                 : 7 h 17 min
Bit rate                                 : 15.0 kb/s
Count of elements                        : 8373
Stream size                              : 46.9 MiB (0%)
Title                                    : English
Language                                 : English
Default                                  : No
Forced                                   : No

Menu
00:00:00.000                             : en:Chapter 01
00:04:16.500                             : en:Chapter 02
00:37:03.375                             : en:Chapter 03
00:51:54.083                             : en:Chapter 04
01:16:39.000                             : en:Chapter 05
01:43:32.291                             : en:Chapter 06
01:58:10.875                             : en:Chapter 07
02:21:14.291                             : en:Chapter 08
02:38:30.458                             : en:Chapter 09
02:48:11.708                             : en:Chapter 10
03:16:01.125                             : en:Chapter 11
03:31:47.416                             : en:Chapter 12
03:42:57.126                             : en:Chapter 13
03:59:12.203                             : en:Chapter 14
04:17:40.827                             : en:Chapter 15
04:44:20.573                             : en:Chapter 16
05:05:19.246                             : en:Chapter 17
05:22:59.252                             : en:Chapter 18
05:45:37.598                             : en:Chapter 19
06:04:50.758                             : en:Chapter 20
06:21:46.330                             : en:Chapter 21
06:46:09.287                             : en:Chapter 22
07:07:45.321                             : en:Chapter 23
07:21:37.451                             : en:Chapter 24
07:27:12.590                             : en:Chapter 25





                                                                                                                                                                                                        
                                                                                                                                                                                                                                                                                                                                                                                                                                                                                                     
8b70484aa097ff114ecee796b2014b6e.zip (87.01 KB)

回复

使用道具 举报

百度云电影论坛 ( 辽ICP备17019482号-3 )

本网站所有资源来自网络,如无意中侵犯了您的权益,请发邮件至 [email protected],立即清除相关链接

GMT+8, 2020-10-29 03:23 , Processed in 0.101641 second(s), 22 queries .

Powered by Discuz! X3.2

© 2001-2013 Comsenz Inc.

快速回复 返回顶部 返回列表