百度云电影论坛

 找回密码
 立即注册

不要为恶 Dont.Be.Bad.2015.720p.BluRay.x264-USURY 2.97GB

[复制链接]

百度云电影 发表于 2020-10-11 11:22:18 | 显示全部楼层 |阅读模式

帖子完整标题:不要为恶 Dont.Be.Bad.2015.720p.BluRay.x264-USURY 2.97GB





◎译  名 不要为恶/Anni rapaci/Don't Be Bad
◎片  名 Non essere cattivo
◎年  代 2015
◎产  地 意大利
◎类  别 剧情 / 犯罪
◎语  言 意大利语
◎上映日期 2015-09-08(意大利)
◎片  长 100分钟
◎导  演 Claudio Caligari
◎主  演 卢卡·马里内利 Luca Marinelli
       Claudio Caligari
       Silvia D'Amico
       罗伯塔·马太 Roberta Mattei
       亚历桑德罗·博尔吉 Alessandro Borghi
       法布里齐奥·吉福尼 Fabrizio Gifuni
       马可·贾利尼 Marco Giallini
       托尼·贝尔多瑞利 Toni Bertorelli

◎标  签 意大利 | 2015 | 犯罪 | 剧情 | 毒品 | 意大利电影 | Claudio_Caligari | 欧洲电影

◎简  介

  这是一个发生于九十年代罗马的奥斯蒂亚镇的故事,彼时享乐主义统治的世界充斥着金钱、豪车、夜总会与合成毒品。二十多岁的童年好友维托里奥和凯撒也正为之而奋斗。但即使是生存,其成本也超过他们的负担。在凯撒不断堕落至无药可救的路上,维托里奥毅然决然地抛弃了他。然而,令他们没有想到的是,两人彼此之间的纽带是那么的紧密,以至于前者其实从未将后者放弃……(小易甫字幕组)
Video
ID                                       : 1
Format                                   : AVC
Format/Info                              : Advanced Video Codec
Format settings                          : CABAC / 12 Ref Frames
Format settings, CABAC                   : Yes
Format settings, Reference frames        : 12 frames
Codec ID                                 : V_MPEG4/ISO/AVC
Duration                                 : 1 h 42 min
Bit rate                                 : 3 512 kb/s
Width                                    : 1 280 pixels
Height                                   : 536 pixels
Display aspect ratio                     : 2.40:1
Frame rate mode                          : Constant
Frame rate                               : 24.000 FPS
Color space                              : YUV
Chroma subsampling                       : 4:2:0
Bit depth                                : 8 bits
Scan type                                : Progressive
Bits/(Pixel*Frame)                       : 0.213
Stream size                              : 2.51 GiB (84%)
Writing library                          : x264 core 161 r3018 db0d417
Encoding settings                        : cabac=1 / ref=12 / deblock=1:-3:-3 / analyse=0x3:0x133 / me=umh / subme=10 / psy=1 / psy_rd=1.00:0.15 / mixed_ref=1 / me_range=24 / chroma_me=1 / trellis=2 / 8x8dct=1 / cqm=0 / deadzone=21,11 / fast_pskip=1 / chroma_qp_offset=-3 / threads=17 / lookahead_threads=2 / sliced_threads=0 / nr=0 / decimate=1 / interlaced=0 / bluray_compat=0 / constrained_intra=0 / bframes=8 / b_pyramid=2 / b_adapt=2 / b_bias=0 / direct=3 / weightb=1 / open_gop=0 / weightp=2 / keyint=250 / keyint_min=24 / scenecut=40 / intra_refresh=0 / rc_lookahead=60 / rc=crf / mbtree=1 / crf=14.0 / qcomp=0.60 / qpmin=0 / qpmax=69 / qpstep=4 / ip_ratio=1.40 / aq=3:0.60
Language                                 : English
Default                                  : Yes
Forced                                   : No
Color range                              : Limited
Matrix coefficients                      : BT.709

Audio
ID                                       : 2
Format                                   : AC-3
Format/Info                              : Audio Coding 3
Commercial name                          : Dolby Digital
Codec ID                                 : A_AC3
Duration                                 : 1 h 42 min
Bit rate mode                            : Constant
Bit rate                                 : 640 kb/s
Channel(s)                               : 6 channels
Channel layout                           : L R C LFE Ls Rs
Sampling rate                            : 48.0 kHz
Frame rate                               : 31.250 FPS (1536 SPF)
Compression mode                         : Lossy
Stream size                              : 468 MiB (15%)
Language                                 : Italian
Service kind                             : Complete Main
Default                                  : Yes
Forced                                   : No

Text #1
ID                                       : 3
Format                                   : UTF-8
Codec ID                                 : S_TEXT/UTF8
Codec ID/Info                            : UTF-8 Plain Text
Duration                                 : 1 h 40 min
Bit rate                                 : 39 b/s
Count of elements                        : 988
Stream size                              : 29.0 KiB (0%)
Title                                    : English
Language                                 : English
Default                                  : Yes
Forced                                   : Yes

Text #2
ID                                       : 4
Format                                   : UTF-8
Codec ID                                 : S_TEXT/UTF8
Codec ID/Info                            : UTF-8 Plain Text
Duration                                 : 1 h 40 min
Bit rate                                 : 44 b/s
Count of elements                        : 942
Stream size                              : 32.9 KiB (0%)
Title                                    : German
Language                                 : German
Default                                  : No
Forced                                   : No

Text #3
ID                                       : 5
Format                                   : PGS
Muxing mode                              : zlib
Codec ID                                 : S_HDMV/PGS
Codec ID/Info                            : Picture based subtitle format used on BDs/HD-DVDs
Duration                                 : 26 s 83 ms
Bit rate                                 : 2 547 b/s
Count of elements                        : 8
Stream size                              : 8.11 KiB (0%)
Title                                    : Italian forced
Language                                 : Italian
Default                                  : No
Forced                                   : No

Text #4
ID                                       : 6
Format                                   : PGS
Muxing mode                              : zlib
Codec ID                                 : S_HDMV/PGS
Codec ID/Info                            : Picture based subtitle format used on BDs/HD-DVDs
Duration                                 : 1 h 37 min
Bit rate                                 : 4 837 b/s
Count of elements                        : 1780
Stream size                              : 3.36 MiB (0%)
Title                                    : Italian SDH
Language                                 : Italian
Default                                  : No
Forced                                   : No

Menu
00:00:00.000                             : en:00:00:00.000
00:09:54.667                             : en:00:09:54.667
00:20:46.667                             : en:00:20:46.667
00:28:24.833                             : en:00:28:24.833
00:34:28.458                             : en:00:34:28.458
00:42:37.750                             : en:00:42:37.750
00:50:49.000                             : en:00:50:49.000
00:59:18.667                             : en:00:59:18.667
01:04:07.875                             : en:01:04:07.875
01:09:02.500                             : en:01:09:02.500
01:14:55.792                             : en:01:14:55.792
01:20:34.208                             : en:01:20:34.208
01:26:33.583                             : en:01:26:33.583
01:31:22.417                             : en:01:31:22.417
01:38:44.250                             : en:01:38:44.250





                                                                                                                                                                                                        
                                                                                                                                                                                                                                             
8ecf70584273b9d4ffb5c17e288d99b8.zip (31.19 KB)

回复

使用道具 举报

百度云电影论坛 ( 辽ICP备17019482号-3 )

本网站所有资源来自网络,如无意中侵犯了您的权益,请发邮件至 [email protected],立即清除相关链接

GMT+8, 2020-10-23 02:15 , Processed in 0.092237 second(s), 22 queries .

Powered by Discuz! X3.2

© 2001-2013 Comsenz Inc.

快速回复 返回顶部 返回列表