百度云电影论坛

 找回密码
 立即注册

罗杰·沃特斯:我们+他们 Roger.Waters.Us.And.Them.2019.720p.BluRay.x264... ...

[复制链接]

百度云电影 发表于 2020-10-8 20:09:35 | 显示全部楼层 |阅读模式

帖子完整标题:罗杰·沃特斯:我们+他们 Roger.Waters.Us.And.Them.2019.720p.BluRay.x264-TREBLE 3.98GB





◎译  名 罗杰·沃特斯:我们+他们
◎片  名 Roger Waters: Us + Them
◎年  代 2019
◎产  地 英国
◎类  别 纪录片 / 音乐
◎语  言 英语
◎上映日期 2019-09-06(威尼斯电影节) / 2019-10-02(英国)
◎片  长 122分钟
◎导  演 尚恩·埃文斯 Sean Evans / 罗杰·沃特斯 Roger Waters
◎主  演 罗杰·沃特斯 Roger Waters
       戴夫·金曼斯特 Dave Kilminster
       乔恩·凯琳 Jon Carin

◎标  签 纪录片 | 音乐 | 英国 | 摇滚 | Pink | 纪录长片 | P-VeniceD非竞赛展映 | 2019

◎简  介

  这部电影以最先进的视觉制作和惊人的声音为特色。拍摄在阿姆斯特丹的欧洲站2017 - 2018年美国+他们参观了水域执行全球超过二百万人,从他的传奇电影歌曲Pink Floyd专辑(月球的阴暗面,墙上,动物,希望你在这里),从他最后的专辑,这是我们真正想要的生活吗?沃特斯与备受赞誉的电影《罗杰·沃特斯的墙》的富有远见的导演肖恩·埃文斯再次合作,推出了这部具有创造性的开创性的电影,以其强有力的音乐和人权、自由和爱的信息来鼓舞人心。
Video
ID                                       : 9
Format                                   : AVC
Format/Info                              : Advanced Video Codec
Format settings                          : CABAC / 8 Ref Frames
Format settings, CABAC                   : Yes
Format settings, Reference frames        : 8 frames
Codec ID                                 : V_MPEG4/ISO/AVC
Duration                                 : 1 h 59 min
Bit rate                                 : 4 124 kb/s
Width                                    : 1 280 pixels
Height                                   : 536 pixels
Display aspect ratio                     : 2.40:1
Frame rate mode                          : Constant
Frame rate                               : 24.000 FPS
Color space                              : YUV
Chroma subsampling                       : 4:2:0
Bit depth                                : 8 bits
Scan type                                : Progressive
Bits/(Pixel*Frame)                       : 0.250
Stream size                              : 3.44 GiB (86%)
Writing library                          : x264 core 161 r3018 db0d417
Encoding settings                        : cabac=1 / ref=8 / deblock=1:-3:-3 / analyse=0x3:0x133 / me=umh / subme=9 / psy=1 / psy_rd=1.00:0.00 / mixed_ref=1 / me_range=16 / chroma_me=1 / trellis=2 / 8x8dct=1 / cqm=0 / deadzone=21,11 / fast_pskip=1 / chroma_qp_offset=-2 / threads=17 / lookahead_threads=1 / sliced_threads=0 / nr=0 / decimate=1 / interlaced=0 / bluray_compat=0 / constrained_intra=0 / bframes=3 / b_pyramid=2 / b_adapt=2 / b_bias=0 / direct=3 / weightb=1 / open_gop=0 / weightp=2 / keyint=250 / keyint_min=24 / scenecut=40 / intra_refresh=0 / rc_lookahead=60 / rc=crf / mbtree=1 / crf=17.0 / qcomp=0.60 / qpmin=0 / qpmax=69 / qpstep=4 / ip_ratio=1.40 / aq=3:0.80
Language                                 : English
Default                                  : Yes
Forced                                   : No
Color range                              : Limited
Matrix coefficients                      : BT.709

Audio
ID                                       : 1
Format                                   : AC-3
Format/Info                              : Audio Coding 3
Commercial name                          : Dolby Digital
Codec ID                                 : A_AC3
Duration                                 : 1 h 59 min
Bit rate mode                            : Constant
Bit rate                                 : 640 kb/s
Channel(s)                               : 6 channels
Channel layout                           : L R C LFE Ls Rs
Sampling rate                            : 48.0 kHz
Frame rate                               : 31.250 FPS (1536 SPF)
Compression mode                         : Lossy
Stream size                              : 547 MiB (13%)
Title                                    : 5.1 AC3
Language                                 : English
Service kind                             : Complete Main
Default                                  : Yes
Forced                                   : No

Text #1
ID                                       : 2
Format                                   : PGS
Muxing mode                              : zlib
Codec ID                                 : S_HDMV/PGS
Codec ID/Info                            : Picture based subtitle format used on BDs/HD-DVDs
Duration                                 : 1 h 57 min
Bit rate                                 : 2 010 b/s
Count of elements                        : 142
Stream size                              : 1.69 MiB (0%)
Title                                    : English
Language                                 : English
Default                                  : Yes
Forced                                   : No

Text #2
ID                                       : 3
Format                                   : PGS
Muxing mode                              : zlib
Codec ID                                 : S_HDMV/PGS
Codec ID/Info                            : Picture based subtitle format used on BDs/HD-DVDs
Duration                                 : 1 h 57 min
Bit rate                                 : 4 128 b/s
Count of elements                        : 300
Stream size                              : 3.47 MiB (0%)
Title                                    : German
Language                                 : German
Default                                  : No
Forced                                   : No

Text #3
ID                                       : 4
Format                                   : PGS
Muxing mode                              : zlib
Codec ID                                 : S_HDMV/PGS
Codec ID/Info                            : Picture based subtitle format used on BDs/HD-DVDs
Duration                                 : 1 h 57 min
Bit rate                                 : 3 824 b/s
Count of elements                        : 298
Stream size                              : 3.22 MiB (0%)
Title                                    : French
Language                                 : French
Default                                  : No
Forced                                   : No

Text #4
ID                                       : 5
Format                                   : PGS
Muxing mode                              : zlib
Codec ID                                 : S_HDMV/PGS
Codec ID/Info                            : Picture based subtitle format used on BDs/HD-DVDs
Duration                                 : 1 h 57 min
Bit rate                                 : 4 066 b/s
Count of elements                        : 300
Stream size                              : 3.42 MiB (0%)
Title                                    : Italian
Language                                 : Italian
Default                                  : No
Forced                                   : No

Text #5
ID                                       : 6
Format                                   : PGS
Muxing mode                              : zlib
Codec ID                                 : S_HDMV/PGS
Codec ID/Info                            : Picture based subtitle format used on BDs/HD-DVDs
Duration                                 : 1 h 57 min
Bit rate                                 : 4 217 b/s
Count of elements                        : 306
Stream size                              : 3.55 MiB (0%)
Title                                    : Spanish
Language                                 : Spanish
Default                                  : No
Forced                                   : No

Text #6
ID                                       : 7
Format                                   : PGS
Muxing mode                              : zlib
Codec ID                                 : S_HDMV/PGS
Codec ID/Info                            : Picture based subtitle format used on BDs/HD-DVDs
Duration                                 : 1 h 57 min
Bit rate                                 : 3 716 b/s
Count of elements                        : 296
Stream size                              : 3.12 MiB (0%)
Title                                    : Dutch
Language                                 : Dutch
Default                                  : No
Forced                                   : No

Text #7
ID                                       : 8
Format                                   : PGS
Muxing mode                              : zlib
Codec ID                                 : S_HDMV/PGS
Codec ID/Info                            : Picture based subtitle format used on BDs/HD-DVDs
Duration                                 : 1 h 57 min
Bit rate                                 : 4 089 b/s
Count of elements                        : 306
Stream size                              : 3.44 MiB (0%)
Title                                    : Portoguese
Language                                 : Portuguese
Default                                  : No
Forced                                   : No

Menu
00:00:00.000                             : en:Chapter 01
00:01:42.375                             : en:Chapter 02
00:02:15.292                             : en:Chapter 03
00:04:59.417                             : en:Chapter 04
00:10:27.042                             : en:Chapter 05
00:16:21.583                             : en:Chapter 06
00:17:30.917                             : en:Chapter 07
00:22:30.542                             : en:Chapter 08
00:29:26.750                             : en:Chapter 09
00:35:15.542                             : en:Chapter 10
00:39:23.000                             : en:Chapter 11
00:46:25.583                             : en:Chapter 12
00:51:22.250                             : en:Chapter 13
00:53:21.083                             : en:Chapter 14
00:56:40.000                             : en:Chapter 15
00:58:15.000                             : en:Chapter 16
01:00:20.417                             : en:Chapter 17
01:16:18.000                             : en:Chapter 18
01:27:53.958                             : en:Chapter 19
01:35:17.625                             : en:Chapter 20
01:43:03.958                             : en:Chapter 21
01:47:37.458                             : en:Chapter 22
01:51:02.000                             : en:Chapter 23
01:52:14.583                             : en:Chapter 24
01:53:45.417                             : en:Chapter 25





                                                                                                                                                                                                        


c4c2a23646e35e9fab582a1496a62e12.zip (40.56 KB)

回复

使用道具 举报

百度云电影论坛 ( 辽ICP备17019482号-3 )

本网站所有资源来自网络,如无意中侵犯了您的权益,请发邮件至 [email protected],立即清除相关链接

GMT+8, 2020-10-29 04:34 , Processed in 0.106485 second(s), 22 queries .

Powered by Discuz! X3.2

© 2001-2013 Comsenz Inc.

快速回复 返回顶部 返回列表