百度云电影论坛

 找回密码
 立即注册

魔由心生 The.Terror.Within.1989.720p.BluRay.x264-GUACAMOLE 2.78GB

[复制链接]

百度云电影 发表于 2020-10-5 20:48:53 | 显示全部楼层 |阅读模式
帖子完整标题:魔由心生 The.Terror.Within.1989.720p.BluRay.x264-GUACAMOLE 2.78GB





◎译  名 魔由心生
◎片  名 The Terror Within
◎年  代 1989
◎产  地 美国
◎类  别 科幻 / 恐怖
◎语  言 英语
◎上映日期 1989-01-20
◎IMDb评分  4.8/10 from 1392 users
◎片  长 90 分钟
◎主  演 乔治·肯尼迪 George Kennedy
       安德鲁 史蒂文斯 Andrew Stevens
       Terri Treas
       汤米·欣克利 Tommy Hinkley
       Jack Valan

◎标  签 恐怖 | 科幻 | 血腥 | 美国 | Cult | 妖妖舞 | 1980s | 美国电影

◎简  介

  暂无相关剧情介绍
Video
ID                                       : 1
Format                                   : AVC
Format/Info                              : Advanced Video Codec
Format settings                          : CABAC / 8 Ref Frames
Format settings, CABAC                   : Yes
Format settings, Reference frames        : 8 frames
Codec ID                                 : V_MPEG4/ISO/AVC
Duration                                 : 1 h 27 min
Bit rate                                 : 3 891 kb/s
Width                                    : 1 280 pixels
Height                                   : 694 pixels
Display aspect ratio                     : 1.85:1
Frame rate mode                          : Constant
Frame rate                               : 24.000 FPS
Color space                              : YUV
Chroma subsampling                       : 4:2:0
Bit depth                                : 8 bits
Scan type                                : Progressive
Bits/(Pixel*Frame)                       : 0.183
Stream size                              : 2.38 GiB (86%)
Writing library                          : x264 core 161 r3018 db0d417
Encoding settings                        : cabac=1 / ref=8 / deblock=1:-3:-3 / analyse=0x3:0x133 / me=umh / subme=9 / psy=1 / psy_rd=1.00:0.00 / mixed_ref=1 / me_range=16 / chroma_me=1 / trellis=2 / 8x8dct=1 / cqm=0 / deadzone=21,11 / fast_pskip=0 / chroma_qp_offset=-2 / threads=22 / lookahead_threads=1 / sliced_threads=0 / nr=0 / decimate=1 / interlaced=0 / bluray_compat=0 / constrained_intra=0 / bframes=3 / b_pyramid=2 / b_adapt=2 / b_bias=0 / direct=3 / weightb=1 / open_gop=0 / weightp=2 / keyint=250 / keyint_min=23 / scenecut=40 / intra_refresh=0 / rc_lookahead=60 / rc=crf / mbtree=1 / crf=22.0 / qcomp=0.60 / qpmin=0 / qpmax=69 / qpstep=4 / ip_ratio=1.40 / aq=3:0.70
Default                                  : Yes
Forced                                   : No
Color range                              : Limited
Color primaries                          : BT.709
Transfer characteristics                 : BT.709
Matrix coefficients                      : BT.709

Audio
ID                                       : 2
Format                                   : FLAC
Format/Info                              : Free Lossless Audio Codec
Codec ID                                 : A_FLAC
Duration                                 : 1 h 27 min
Bit rate mode                            : Variable
Bit rate                                 : 648 kb/s
Channel(s)                               : 2 channels
Channel layout                           : L R
Sampling rate                            : 48.0 kHz
Frame rate                               : 10.417 FPS (4608 SPF)
Bit depth                                : 24 bits
Compression mode                         : Lossless
Stream size                              : 407 MiB (14%)
Writing library                          : MakeMKV v1.15.1 win(x64-release)
Language                                 : English
Default                                  : Yes
Forced                                   : No

Menu
00:00:00.000                             : en:00:00:00.000
00:11:23.333                             : en:00:11:23.333
00:21:44.917                             : en:00:21:44.917
00:32:44.083                             : en:00:32:44.083
00:44:06.333                             : en:00:44:06.333
00:54:27.500                             : en:00:54:27.500
01:05:29.000                             : en:01:05:29.000
01:17:04.542                             : en:01:17:04.542
01:24:38.542                             : en:01:24:38.542





                                                                                                                                                                                                        
                                                                                                                                                                                                   
80762edec7241b4bca261f3233f88a8c.zip (29.28 KB)

回复

使用道具 举报

百度云电影论坛 ( 辽ICP备17019482号-3 )

本网站所有资源来自网络,如无意中侵犯了您的权益,请发邮件至 [email protected],立即清除相关链接

GMT+8, 2020-10-23 02:12 , Processed in 0.089578 second(s), 22 queries .

Powered by Discuz! X3.2

© 2001-2013 Comsenz Inc.

快速回复 返回顶部 返回列表