百度云电影论坛

 找回密码
 立即注册

她的马拉松/布列塔尼参加马拉松比赛 Brittany.Runs.A.Marathon.20...

[复制链接]

百度云电影 发表于 2020-5-4 08:56:05 | 显示全部楼层 |阅读模式
帖子完整标题:她的马拉松/布列塔尼参加马拉松比赛 Brittany.Runs.A.Marathon.2019.HDR.2160p.WEB.h265-WATCHER 11.19GB





◎译  名 她的马拉松 / 布列塔尼参加马拉松比赛(台) / 我的马拉松日记(港)
◎片  名 Brittany Runs a Marathon
◎年  代 2019
◎产  地 美国
◎类  别 剧情 / 喜剧
◎语  言 英语
◎上映日期 2019-01-28(圣丹斯电影节) / 2019-08-23(美国)
◎IMDb评分  6.8/10 from 11959 users
◎片  长 103分钟
◎导  演 保罗·唐斯·卡莱佐 Paul Downs Colaizzo
◎编  剧 保罗·唐斯·卡莱佐 Paul Downs Colaizzo
◎主  演 里尔·莱尔·哈瓦瑞 Lil Rel Howery
       吉莉恩·贝尔 Jillian Bell
       麦可拉·沃金丝 Michaela Watkins
       乌特卡什·安邦德卡尔 Utkarsh Ambudkar
       爱丽丝·李 Alice Lee
       米卡·斯托克 Micah Stock


◎标  签 励志 | 美国 | 跑步 | 女性 | 喜剧 | 2019 | 剧情 | 鸡汤

◎简  介  

  布列塔尼·福格勒是一个有趣的,可爱的,27岁的纽约人,紧迫的生活让她过得乱七八糟的,其肮脏的夜总会冒险和清晨羞耻的散步使她每天上班迟到。但是当她停在一个叫“推荐医生办公室”的地方,试图给她加药时,布里塔尼得到了一系列的诊断结果,而不是心率升高、血压升高……一长串的疾病。突然,布列塔尼被迫握紧,系上她的匡威运动鞋,跑了一个汗块。第二天,她跑了两次。很快她就跑了一英里。布列塔尼终于有了方向,但她走对了吗?
  获奖剧作家保罗·唐斯·科拉伊佐以这部明亮、活泼的喜剧首次执导了他的导演生涯,而吉利安·贝尔则以一个不可抗拒的演员阵容为布列塔尼的故事注入了内心和灵魂。布列塔尼经营一场马拉松是一部既有趣又鼓舞人心的电影,讲述一个以派对生活闻名的女人如何通过控制自己找到真正的朋友和真实的生活,跑过一次一个街区。

◎获奖情况  

  第35届圣丹斯电影节(2019)
  评审团大奖 剧情片(提名) 保罗·唐斯·卡莱佐
  观众奖 剧情片 保罗·唐斯·卡莱佐

  第24届金卫星奖(2020)
  电视部门 最佳电视电影(提名)
Video
ID                                       : 1
Format                                   : HEVC
Format/Info                              : High Efficiency Video Coding
HDR format                               : SMPTE ST 2094 App 4, Version 0
Codec ID                                 : V_MPEGH/ISO/HEVC
Duration                                 : 1 h 43 min
Bit rate                                 : 14.6 Mb/s
Width                                    : 3 840 pixels
Height                                   : 1 600 pixels
Display aspect ratio                     : 2.40:1
Frame rate mode                          : Constant
Frame rate                               : 23.976 (24000/1001/189150) FPS
Standard                                 : NTSC
Color space                              : YUV
Chroma subsampling                       : 4:2:0 (Type 2)
Bit depth                                : 10 bits
Bits/(Pixel*Frame)                       : 0.099
Stream size                              : 10.6 GiB (96%)
Default                                  : Yes
Forced                                   : No
Color range                              : Limited
Color primaries                          : BT.2020
Transfer characteristics                 : PQ
Matrix coefficients                      : BT.2020 non-constant
Mastering display color primaries        : Display P3
Mastering display luminance              : min: 0.0001 cd/m2, max: 1000 cd/m2
Maximum Content Light Level              : 1000 cd/m2
Maximum Frame-Average Light Level        : 812 cd/m2

Audio
ID                                       : 2
Format                                   : E-AC-3
Format/Info                              : Enhanced AC-3
Commercial name                          : Dolby Digital Plus
Codec ID                                 : A_EAC3
Duration                                 : 1 h 43 min
Bit rate mode                            : Constant
Bit rate                                 : 640 kb/s
Channel(s)                               : 6 channels
Channel layout                           : L R C LFE Ls Rs
Sampling rate                            : 48.0 kHz
Frame rate                               : 31.250 FPS (1536 SPF)
Compression mode                         : Lossy
Stream size                              : 475 MiB (4%)
Title                                    : English
Language                                 : English
Service kind                             : Complete Main
Default                                  : Yes
Forced                                   : No

Text #1
ID                                       : 3
Format                                   : UTF-8
Codec ID                                 : S_TEXT/UTF8
Codec ID/Info                            : UTF-8 Plain Text
Duration                                 : 1 h 40 min
Bit rate                                 : 82 b/s
Count of elements                        : 1850
Stream size                              : 60.5 KiB (0%)
Title                                    : English [SDH]
Language                                 : English
Default                                  : No
Forced                                   : No

Text #2
ID                                       : 4
Format                                   : UTF-8
Codec ID                                 : S_TEXT/UTF8
Codec ID/Info                            : UTF-8 Plain Text
Duration                                 : 1 h 42 min
Bit rate                                 : 62 b/s
Count of elements                        : 1360
Stream size                              : 47.4 KiB (0%)
Title                                    : Castilian [Full]
Language                                 : Spanish
Default                                  : No
Forced                                   : No

Text #3
ID                                       : 5
Format                                   : UTF-8
Codec ID                                 : S_TEXT/UTF8
Codec ID/Info                            : UTF-8 Plain Text
Duration                                 : 1 h 42 min
Bit rate                                 : 61 b/s
Count of elements                        : 1426
Stream size                              : 46.3 KiB (0%)
Title                                    : Spanish [Full]
Language                                 : Spanish
Default                                  : No
Forced                                   : No

Text #4
ID                                       : 6
Format                                   : UTF-8
Codec ID                                 : S_TEXT/UTF8
Codec ID/Info                            : UTF-8 Plain Text
Duration                                 : 1 h 42 min
Bit rate                                 : 61 b/s
Count of elements                        : 1356
Stream size                              : 46.4 KiB (0%)
Title                                    : French [Full]
Language                                 : French
Default                                  : No
Forced                                   : No

Text #5
ID                                       : 7
Format                                   : UTF-8
Codec ID                                 : S_TEXT/UTF8
Codec ID/Info                            : UTF-8 Plain Text
Duration                                 : 1 h 43 min
Bit rate                                 : 69 b/s
Count of elements                        : 1384
Stream size                              : 52.5 KiB (0%)
Title                                    : Italian [Full]
Language                                 : Italian
Default                                  : No
Forced                                   : No

Text #6
ID                                       : 8
Format                                   : UTF-8
Codec ID                                 : S_TEXT/UTF8
Codec ID/Info                            : UTF-8 Plain Text
Duration                                 : 1 h 38 min
Bit rate                                 : 56 b/s
Count of elements                        : 1239
Stream size                              : 40.7 KiB (0%)
Title                                    : Brazilian Portuguese [Full]
Language                                 : Portuguese
Default                                  : No
Forced                                   : No

Text #7
ID                                       : 9
Format                                   : UTF-8
Codec ID                                 : S_TEXT/UTF8
Codec ID/Info                            : UTF-8 Plain Text
Duration                                 : 1 h 42 min
Bit rate                                 : 59 b/s
Count of elements                        : 1293
Stream size                              : 44.8 KiB (0%)
Title                                    : Polish [Full]
Language                                 : Polish
Default                                  : No
Forced                                   : No

Text #8
ID                                       : 10
Format                                   : UTF-8
Codec ID                                 : S_TEXT/UTF8
Codec ID/Info                            : UTF-8 Plain Text
Duration                                 : 1 h 42 min
Bit rate                                 : 62 b/s
Count of elements                        : 1353
Stream size                              : 47.4 KiB (0%)
Title                                    : Turkish [Full]
Language                                 : Turkish
Default                                  : No
Forced                                   : No

Text #9
ID                                       : 11
Format                                   : UTF-8
Codec ID                                 : S_TEXT/UTF8
Codec ID/Info                            : UTF-8 Plain Text
Duration                                 : 1 h 42 min
Bit rate                                 : 71 b/s
Count of elements                        : 1360
Stream size                              : 53.9 KiB (0%)
Title                                    : Swedish [Full]
Language                                 : Swedish
Default                                  : No
Forced                                   : No

Text #10
ID                                       : 12
Format                                   : UTF-8
Codec ID                                 : S_TEXT/UTF8
Codec ID/Info                            : UTF-8 Plain Text
Duration                                 : 1 h 42 min
Bit rate                                 : 60 b/s
Count of elements                        : 1356
Stream size                              : 45.2 KiB (0%)
Title                                    : Danish [Full]
Language                                 : Danish
Default                                  : No
Forced                                   : No

Text #11
ID                                       : 13
Format                                   : UTF-8
Codec ID                                 : S_TEXT/UTF8
Codec ID/Info                            : UTF-8 Plain Text
Duration                                 : 1 h 42 min
Bit rate                                 : 60 b/s
Count of elements                        : 1348
Stream size                              : 45.6 KiB (0%)
Title                                    : Finnish [Full]
Language                                 : Finnish
Default                                  : No
Forced                                   : No

Text #12
ID                                       : 14
Format                                   : UTF-8
Codec ID                                 : S_TEXT/UTF8
Codec ID/Info                            : UTF-8 Plain Text
Duration                                 : 1 h 43 min
Bit rate                                 : 54 b/s
Count of elements                        : 994
Stream size                              : 41.0 KiB (0%)
Title                                    : Dutch [Full]
Language                                 : Dutch
Default                                  : No
Forced                                   : No

Text #13
ID                                       : 15
Format                                   : UTF-8
Codec ID                                 : S_TEXT/UTF8
Codec ID/Info                            : UTF-8 Plain Text
Duration                                 : 1 h 42 min
Bit rate                                 : 57 b/s
Count of elements                        : 1357
Stream size                              : 43.1 KiB (0%)
Title                                    : Norwegian (Bokm?l) [Full]
Language                                 : Norwegian Bokmal
Default                                  : No
Forced                                   : No

Text #14
ID                                       : 16
Format                                   : UTF-8
Codec ID                                 : S_TEXT/UTF8
Codec ID/Info                            : UTF-8 Plain Text
Duration                                 : 1 h 42 min
Bit rate                                 : 100 b/s
Count of elements                        : 1369
Stream size                              : 75.4 KiB (0%)
Title                                    : Russian [Full]
Language                                 : Russian
Default                                  : No
Forced                                   : No

Text #15
ID                                       : 17
Format                                   : UTF-8
Codec ID                                 : S_TEXT/UTF8
Codec ID/Info                            : UTF-8 Plain Text
Duration                                 : 1 h 42 min
Bit rate                                 : 91 b/s
Count of elements                        : 1373
Stream size                              : 69.2 KiB (0%)
Title                                    : Hebrew [Full]
Language                                 : Hebrew
Default                                  : No
Forced                                   : No

Text #16
ID                                       : 18
Format                                   : UTF-8
Codec ID                                 : S_TEXT/UTF8
Codec ID/Info                            : UTF-8 Plain Text
Duration                                 : 1 h 42 min
Bit rate                                 : 90 b/s
Count of elements                        : 1377
Stream size                              : 68.4 KiB (0%)
Title                                    : Arabic [Full]
Language                                 : Arabic
Default                                  : No
Forced                                   : No

Text #17
ID                                       : 19
Format                                   : UTF-8
Codec ID                                 : S_TEXT/UTF8
Codec ID/Info                            : UTF-8 Plain Text
Duration                                 : 1 h 42 min
Bit rate                                 : 167 b/s
Count of elements                        : 1370
Stream size                              : 126 KiB (0%)
Title                                    : Hindi [Full]
Language                                 : Hindi
Default                                  : No
Forced                                   : No

Text #18
ID                                       : 20
Format                                   : UTF-8
Codec ID                                 : S_TEXT/UTF8
Codec ID/Info                            : UTF-8 Plain Text
Duration                                 : 1 h 42 min
Bit rate                                 : 195 b/s
Count of elements                        : 1368
Stream size                              : 147 KiB (0%)
Title                                    : Tamil [Full]
Language                                 : Tamil
Default                                  : No
Forced                                   : No

Text #19
ID                                       : 21
Format                                   : UTF-8
Codec ID                                 : S_TEXT/UTF8
Codec ID/Info                            : UTF-8 Plain Text
Duration                                 : 1 h 42 min
Bit rate                                 : 149 b/s
Count of elements                        : 1369
Stream size                              : 112 KiB (0%)
Title                                    : Telugu [Full]
Language                                 : Telugu
Default                                  : No
Forced                                   : No

Text #20
ID                                       : 22
Format                                   : UTF-8
Codec ID                                 : S_TEXT/UTF8
Codec ID/Info                            : UTF-8 Plain Text
Duration                                 : 1 h 42 min
Bit rate                                 : 63 b/s
Count of elements                        : 1351
Stream size                              : 47.7 KiB (0%)
Title                                    : Indonesian [Full]
Language                                 : Indonesian
Default                                  : No
Forced                                   : No

Text #21
ID                                       : 23
Format                                   : UTF-8
Codec ID                                 : S_TEXT/UTF8
Codec ID/Info                            : UTF-8 Plain Text
Duration                                 : 1 h 42 min
Bit rate                                 : 154 b/s
Count of elements                        : 1378
Stream size                              : 117 KiB (0%)
Title                                    : Thai [Full]
Language                                 : Thai
Default                                  : No
Forced                                   : No

Text #22
ID                                       : 24
Format                                   : UTF-8
Codec ID                                 : S_TEXT/UTF8
Codec ID/Info                            : UTF-8 Plain Text
Duration                                 : 1 h 42 min
Bit rate                                 : 69 b/s
Count of elements                        : 1377
Stream size                              : 52.1 KiB (0%)
Title                                    : Korean [Full]
Language                                 : Korean
Default                                  : No
Forced                                   : No

Text #23
ID                                       : 25
Format                                   : UTF-8
Codec ID                                 : S_TEXT/UTF8
Codec ID/Info                            : UTF-8 Plain Text
Duration                                 : 1 h 42 min
Bit rate                                 : 60 b/s
Count of elements                        : 1380
Stream size                              : 45.6 KiB (0%)
Title                                    : Chinese (Simplified) [Full]
Language                                 : Chinese
Default                                  : No
Forced                                   : No

Text #24
ID                                       : 26
Format                                   : UTF-8
Codec ID                                 : S_TEXT/UTF8
Codec ID/Info                            : UTF-8 Plain Text
Duration                                 : 1 h 42 min
Bit rate                                 : 61 b/s
Count of elements                        : 1374
Stream size                              : 46.0 KiB (0%)
Title                                    : Chinese (Traditional) [Full]
Language                                 : Chinese
Default                                  : No
Forced                                   : No

Menu
00:00:00.000                             : en:Studio Logo
00:00:29.000                             : en:Brittany shirks her responsibilities
00:02:23.000                             : en:Title Sequence
00:02:26.000                             : en:A trip to the doctor
00:05:34.000                             : en:Feeling stuck
00:10:04.000                             : en:Hitting rock bottom
00:17:12.000                             : en:Setting little goals
00:23:57.000                             : en:Brittany's first 5k
00:28:20.000                             : en:A plan to run the marathon
00:30:34.000                             : en:A second stream of income
00:36:12.000                             : en:Transitioning into a new lifestyle
00:47:08.000                             : en:A desire to start dating
00:55:59.000                             : en:Things heat up with Jern
01:00:29.000                             : en:Finding your true friends
01:07:34.000                             : enaying attention to pain
01:12:10.000                             : en:Taking time to heal
01:21:33.000                             : en:Reconnecting and taking responsibility
01:29:15.000                             : en:The New York City Marathon
01:33:54.000                             : en:Finish strong
01:37:55.000                             : en:Acknowledgement
01:38:13.000                             : en:End Credits




                                                                                                                                                                                                        
                                                                                                                                                                                                                                                                                                                                                                                                                                                                                                                                                                                                                                                                                                                                                                                                                                                      
7ed2fd399a0f01042ab7ac73d7306f6a.torrent (56.7 KB)

回复

使用道具 举报

百度云电影论坛 ( 辽ICP备17019482号-3 )

本网站所有资源来自网络,如无意中侵犯了您的权益,请发邮件至 [email protected],立即清除相关链接

GMT+8, 2020-10-25 21:43 , Processed in 0.103704 second(s), 22 queries .

Powered by Discuz! X3.2

© 2001-2013 Comsenz Inc.

快速回复 返回顶部 返回列表