百度云电影论坛

 找回密码
 立即注册

勇敢者游戏2:再战巅峰 Jumanji.The.Next.Level.2019.2160p.UHD.BluRay.X2...

[复制链接]

百度云电影 发表于 2020-4-2 21:17:40 | 显示全部楼层 |阅读模式
子完整标题:勇敢者游戏2:再战巅峰 Jumanji.The.Next.Level.2019.2160p.UHD.BluRay.X265.10bit.HDR.DTS-X.7.1-WhiteRhino 11.76GB





◎译  名 勇敢者游戏2:再战巅峰 / Jumanji 2 / 勇敢者游戏2 / 勇敢者游戏4 / 新勇敢者的游戏2 / 逃出魔幻纪:霸气升呢(港) / 野蛮游戏:全面晋级(台)
◎片  名 Jumanji: The Next Level
◎年  代 2019
◎产  地 美国
◎类  别 喜剧 / 动作 / 奇幻 / 冒险
◎语  言 英语
◎上映日期 2019-12-06(中国大陆) / 2019-12-13(美国)
◎IMDb评分  6.7/10 from 113661 users
◎片  长 122分钟
◎导  演 杰克·卡斯丹 Jake Kasdan
◎编  剧 杰夫·皮克纳 Jeff Pinkner / 斯科特·罗森伯格 Scott Rosenberg
◎主  演 道恩·强森 Dwayne Johnson
       凯伦·吉兰 Karen Gillan
       杰克·布莱克 Jack Black
       凯文·哈特 Kevin Hart
       尼克·乔纳斯 Nick Jonas
       奥卡菲娜 Awkwafina
       亚历克斯·沃尔夫 Alex Wolff
       丹尼·德维托 Danny DeVito
       摩根·特纳 Morgan Turner
       罗伊·麦克凯恩 Rory McCann
       玛琳·辛科 Marin Hinkle
       麦迪森·伊瑟曼 Madison Iseman
       科林·汉克斯 Colin Hanks
       丹妮亚·拉米雷兹 Dania Ramirez
       瑞斯·达比 Rhys Darby
       丹尼·格洛弗 Danny Glover
       瑟达吕斯·布兰 Ser'Darius Blain
       尼克·戈麦斯 Nick Gomez
       布鲁诺·罗斯 Bruno Rose
       莎拉·贝纳尼 Sarah Bennani
       查尔斯·格林 Charles Green
       迈克尔·比斯利 Michael Beasley
       保罗·皮尔斯伯里 Paul Pillsbury
       萨尔·隆戈巴尔多 Sal Longobardo
       约翰·盖蒂尔 John Gettier


◎标  签 冒险 | 喜剧 | 奇幻 | 美国 | 动作 | 2019 | 科幻 | 电影

◎简  介  

  四名勇敢者再次穿越回到险象环生的游戏世界中,开启全新冒险。与上次不同的是,变身勇石博士 (道恩·强森 饰) 的是斯潘瑟的外公,外公的好友则变身为语言学家 (凯文· 哈特 饰),高大威猛的弗里奇变成了中年发福地质学家 (杰克·布莱克 饰),只有学霸玛莎依旧化身性感打女 (凯伦·吉兰 饰),斯潘瑟和贝瑟尼却不知所踪。为营救消失的伙伴,四人必须进入全面失控的未知世界,面对难度爆表危险重重的致命关卡,强森领队挑战极限玩命闯关。山崩石裂的险境中命悬一线,与突如其来的凶猛野兽死战到底,他们唯有绷紧神经并肩作战,才能通过生死考验逃出生天。一场惊险刺激又充满惊喜的冒险之旅即将展开!
Video
ID                                       : 1
Format                                   : HEVC
Format/Info                              : High Efficiency Video Coding
HDR format                               : SMPTE ST 2086, HDR10 compatible
Codec ID                                 : V_MPEGH/ISO/HEVC
Duration                                 : 2 h 3 min
Bit rate                                 : 6 575 kb/s
Width                                    : 3 840 pixels
Height                                   : 1 608 pixels
Display aspect ratio                     : 2.40:1
Frame rate mode                          : Constant
Frame rate                               : 23.976 (24000/1001/189150) FPS
Color space                              : YUV
Chroma subsampling                       : 4:2:0 (Type 2)
Bit depth                                : 10 bits
Bits/(Pixel*Frame)                       : 0.044
Stream size                              : 5.66 GiB (48%)
Writing library                          : x265 3.3gbe2d82093:[Windows][GCC 10.0.1][64 bit] 10bit
Encoding settings                        : cpuid=1111039 / frame-threads=5 / numa-pools=36 / wpp / no-pmode / no-pme / no-psnr / no-ssim / log-level=2 / input-csp=1 / input-res=3840x1608 / interlace=0 / total-frames=177192 / level-idc=51 / high-tier=1 / uhd-bd=0 / ref=4 / no-allow-non-conformance / repeat-headers / annexb / aud / hrd / info / hash=0 / no-temporal-layers / no-open-gop / min-keyint=1 / keyint=24 / gop-lookahead=0 / bframes=4 / b-adapt=2 / b-pyramid / bframe-bias=0 / rc-lookahead=25 / lookahead-slices=4 / scenecut=40 / hist-scenecut=0 / radl=0 / no-splice / no-intra-refresh / ctu=64 / min-cu-size=8 / rect / no-amp / max-tu-size=32 / tu-inter-depth=1 / tu-intra-depth=1 / limit-tu=0 / rdoq-level=2 / dynamic-rd=0.00 / no-ssim-rd / signhide / no-tskip / nr-intra=0 / nr-inter=0 / no-constrained-intra / no-strong-intra-smoothing / max-merge=3 / limit-refs=3 / limit-modes / me=3 / subme=3 / merange=57 / temporal-mvp / no-frame-dup / no-hme / weightp / no-weightb / no-analyze-src-pics / deblock=-3:-3 / no-sao / no-sao-non-deblock / rd=4 / selective-sao=0 / no-early-skip / rskip / no-fast-intra / no-tskip-fast / no-cu-lossless / no-b-intra / no-splitrd-skip / rdpenalty=0 / psy-rd=2.00 / psy-rdoq=1.00 / no-rd-refine / no-lossless / cbqpoffs=0 / crqpoffs=0 / rc=crf / crf=17.0 / qcomp=0.60 / qpstep=4 / stats-write=0 / stats-read=0 / vbv-maxrate=160000 / vbv-bufsize=160000 / vbv-init=0.9 / crf-max=0.0 / crf-min=0.0 / ipratio=1.40 / pbratio=1.30 / aq-mode=2 / aq-strength=1.00 / cutree / zone-count=0 / no-strict-cbr / qg-size=32 / no-rc-grain / qpmax=69 / qpmin=0 / no-const-vbv / sar=1 / overscan=0 / videoformat=5 / range=0 / colorprim=9 / transfer=16 / colormatrix=9 / chromaloc=1 / chromaloc-top=2 / chromaloc-bottom=2 / display-window=0 / master-display=G(13250,34500)B(7500,3000)R(34000,16000)WP(15635,16450)L(40000000,50) / cll=6248,902 / min-luma=0 / max-luma=1023 / log2-max-poc-lsb=8 / vui-timing-info / vui-hrd-info / slices=1 / no-opt-qp-pps / no-opt-ref-list-length-pps / no-multi-pass-opt-rps / scenecut-bias=0.05 / hist-threshold=0.01 / no-opt-cu-delta-qp / no-aq-motion / hdr10 / hdr10-opt / no-dhdr10-opt / no-idr-recovery-sei / analysis-reuse-level=0 / analysis-save-reuse-level=0 / analysis-load-reuse-level=0 / scale-factor=0 / refine-intra=0 / refine-inter=0 / refine-mv=1 / refine-ctu-distortion=0 / no-limit-sao / ctu-info=0 / no-lowpass-dct / refine-analysis-type=0 / copy-pic=1 / max-ausize-factor=1.0 / no-dynamic-refine / no-single-sei / no-hevc-aq / no-svt / no-field / qp-adaptation-range=1.00 / no-scenecut-aware-qpconformance-window-offsets / right=0 / bottom=0
Default                                  : Yes
Forced                                   : No
Color range                              : Limited
Color primaries                          : BT.2020
Transfer characteristics                 : PQ
Matrix coefficients                      : BT.2020 non-constant
Mastering display color primaries        : Display P3
Mastering display luminance              : min: 0.0050 cd/m2, max: 4000 cd/m2
Maximum Content Light Level              : 6248 cd/m2
Maximum Frame-Average Light Level        : 902 cd/m2

Audio #1
ID                                       : 2
Format                                   : DTS XLL
Format/Info                              : Digital Theater Systems
Commercial name                          : DTS-HD Master Audio
Codec ID                                 : A_DTS
Duration                                 : 2 h 3 min
Bit rate mode                            : Variable
Bit rate                                 : 6 291 kb/s
Channel(s)                               : 8 channels
Channel layout                           : C L R LFE Lb Rb Lss Rss
Sampling rate                            : 48.0 kHz
Frame rate                               : 93.750 FPS (512 SPF)
Bit depth                                : 24 bits
Compression mode                         : Lossless
Stream size                              : 5.41 GiB (46%)
Language                                 : English
Default                                  : Yes
Forced                                   : No

Audio #2
ID                                       : 3
Format                                   : AC-3
Format/Info                              : Audio Coding 3
Commercial name                          : Dolby Digital
Codec ID                                 : A_AC3
Duration                                 : 2 h 3 min
Bit rate mode                            : Constant
Bit rate                                 : 640 kb/s
Channel(s)                               : 6 channels
Channel layout                           : L R C LFE Ls Rs
Sampling rate                            : 48.0 kHz
Frame rate                               : 31.250 FPS (1536 SPF)
Compression mode                         : Lossy
Stream size                              : 564 MiB (5%)
Language                                 : English
Service kind                             : Complete Main
Default                                  : No
Forced                                   : No

Text #1
ID                                       : 4
Format                                   : PGS
Muxing mode                              : zlib
Codec ID                                 : S_HDMV/PGS
Codec ID/Info                            : Picture based subtitle format used on BDs/HD-DVDs
Duration                                 : 2 h 2 min
Bit rate                                 : 37.0 kb/s
Count of elements                        : 3704
Stream size                              : 32.4 MiB (0%)
Language                                 : English
Default                                  : No
Forced                                   : No

Text #2
ID                                       : 5
Format                                   : PGS
Muxing mode                              : zlib
Codec ID                                 : S_HDMV/PGS
Codec ID/Info                            : Picture based subtitle format used on BDs/HD-DVDs
Duration                                 : 1 h 52 min
Bit rate                                 : 35.2 kb/s
Count of elements                        : 3114
Stream size                              : 28.4 MiB (0%)
Language                                 : English
Default                                  : No
Forced                                   : No

Text #3
ID                                       : 6
Format                                   : PGS
Muxing mode                              : zlib
Codec ID                                 : S_HDMV/PGS
Codec ID/Info                            : Picture based subtitle format used on BDs/HD-DVDs
Duration                                 : 2 h 1 min
Bit rate                                 : 26.1 kb/s
Count of elements                        : 3178
Stream size                              : 22.7 MiB (0%)
Language                                 : French
Default                                  : No
Forced                                   : No

Text #4
ID                                       : 7
Format                                   : PGS
Muxing mode                              : zlib
Codec ID                                 : S_HDMV/PGS
Codec ID/Info                            : Picture based subtitle format used on BDs/HD-DVDs
Duration                                 : 2 h 1 min
Bit rate                                 : 49 b/s
Count of elements                        : 4
Stream size                              : 43.6 KiB (0%)
Language                                 : French
Default                                  : No
Forced                                   : No

Text #5
ID                                       : 8
Format                                   : PGS
Muxing mode                              : zlib
Codec ID                                 : S_HDMV/PGS
Codec ID/Info                            : Picture based subtitle format used on BDs/HD-DVDs
Duration                                 : 2 h 2 min
Bit rate                                 : 30.7 kb/s
Count of elements                        : 3126
Stream size                              : 26.8 MiB (0%)
Language                                 : Spanish
Default                                  : No
Forced                                   : No

Menu
00:00:00.000                             : en:Chapter 01
00:09:18.349                             : en:Chapter 02
00:17:40.476                             : en:Chapter 03
00:23:10.681                             : en:Chapter 04
00:31:12.287                             : en:Chapter 05
00:38:19.130                             : en:Chapter 06
00:42:39.265                             : en:Chapter 07
00:48:52.972                             : en:Chapter 08
00:57:11.428                             : en:Chapter 09
01:06:03.001                             : en:Chapter 10
01:13:16.142                             : en:Chapter 11
01:21:29.093                             : en:Chapter 12
01:28:33.725                             : en:Chapter 13
01:32:39.512                             : en:Chapter 14
01:37:05.403                             : en:Chapter 15
01:45:00.586                             : en:Chapter 16




                                                                                                                                                                                                        
                                                                                                                                                                                                                                                                                                                                                                                                                                                                                                                                                                                                                                                                                                                                                                                                                                                      
c517e7fc7f5b4dedce99feb4ee62de14.torrent (59.56 KB)

回复

使用道具 举报

百度云电影论坛 ( 辽ICP备17019482号-3 )

本网站所有资源来自网络,如无意中侵犯了您的权益,请发邮件至 [email protected],立即清除相关链接

GMT+8, 2020-10-28 02:41 , Processed in 0.110825 second(s), 22 queries .

Powered by Discuz! X3.2

© 2001-2013 Comsenz Inc.

快速回复 返回顶部 返回列表