百度云电影论坛

 找回密码
 立即注册

哪吒之魔童降世 Ne.Zha.2019.CHINESE.2160p.BluRay.x265.10bit.SDR.DTS-HD....

[复制链接]

百度云电影 发表于 2020-4-2 21:17:38 | 显示全部楼层 |阅读模式
帖子完整标题:哪吒之魔童降世 Ne.Zha.2019.CHINESE.2160p.BluRay.x265.10bit.SDR.DTS-HD.MA.5.1-SWTYBLZ 24.11GB





◎译  名 Ne Zha / Nezha: Birth of the Demon Child / 哪吒降世
◎片  名 哪吒之魔童降世
◎年  代 2019
◎产  地 中国大陆
◎类  别 剧情 / 喜剧 / 动画 / 奇幻
◎语  言 汉语普通话
◎上映日期 2019-07-13(大规模点映) / 2019-07-26(中国大陆)
◎IMDb评分  7.6/10 from 3152 users
◎片  长 110分钟
◎导  演 饺子 Yu Yang
◎编  剧 饺子 Yu Yang / 易巧 Qiao Yi / 魏芸芸 Yunyun Wei
◎主  演 吕艳婷 Yanting Lü
       囧森瑟夫 Joseph
       瀚墨 Mo Han
       陈浩 Hao Chen
       绿绮 Qi Lü
       张珈铭 Jiaming Zhang
       杨卫 Wei Yang


◎标  签 动画 | 哪吒 | 中国大陆 | 神话 | 成长 | 亲情 | 2019 | 搞笑

◎简  介  

  天地灵气孕育出一颗能量巨大的混元珠,元始天尊将混元珠提炼成灵珠和魔丸,灵珠投胎为人,助周伐纣时可堪大用;而魔丸则会诞出魔王,为祸人间。元始天尊启动了天劫咒语,3年后天雷将会降临,摧毁魔丸。太乙受命将灵珠托生于陈塘关李靖家的儿子哪吒身上。然而阴差阳错,灵珠和魔丸竟然被掉包。本应是灵珠英雄的哪吒却成了混世大魔王。调皮捣蛋顽劣不堪的哪吒却徒有一颗做英雄的心。然而面对众人对魔丸的误解和即将来临的天雷的降临,哪吒是否命中注定会立地成魔?他将何去何从?

◎获奖情况  

  第6届豆瓣电影年度榜单(2019)
  评分最高的华语电影
  最受关注的院线电影(提名)
  评分最高的动画片
Video
ID                                       : 1
Format                                   : HEVC
Format/Info                              : High Efficiency Video Coding
Codec ID                                 : V_MPEGH/ISO/HEVC
Duration                                 : 1 h 50 min
Bit rate                                 : 17.6 Mb/s
Width                                    : 3 840 pixels
Height                                   : 1 608 pixels
Display aspect ratio                     : 2.40:1
Frame rate mode                          : Constant
Frame rate                               : 24.000 FPS
Color space                              : YUV
Chroma subsampling                       : 4:2:0
Bit depth                                : 10 bits
Bits/(Pixel*Frame)                       : 0.118
Stream size                              : 13.5 GiB (56%)
Title                                    : Ne.Zha.2019.CHINESE.2160p.BluRay.x265.10bit.SDR.DTS-HD.MA.5.1-SWTYBLZ
Writing library                          : x265 3.0ed72af837053:[Windows][GCC 8.2.0][64 bit] 10bit
Encoding settings                        : cpuid=1111039 / frame-threads=6 / numa-pools=40 / wpp / no-pmode / no-pme / no-psnr / no-ssim / log-level=2 / input-csp=1 / input-res=3840x1608 / interlace=0 / total-frames=158580 / level-idc=51 / high-tier=1 / uhd-bd=0 / ref=3 / no-allow-non-conformance / repeat-headers / annexb / aud / hrd / info / hash=0 / no-temporal-layers / no-open-gop / min-keyint=1 / keyint=24 / gop-lookahead=0 / bframes=6 / b-adapt=2 / b-pyramid / bframe-bias=0 / rc-lookahead=25 / lookahead-slices=4 / scenecut=40 / radl=0 / no-splice / no-intra-refresh / ctu=64 / min-cu-size=8 / no-rect / no-amp / max-tu-size=32 / tu-inter-depth=1 / tu-intra-depth=1 / limit-tu=0 / rdoq-level=0 / dynamic-rd=0.00 / no-ssim-rd / signhide / no-tskip / nr-intra=0 / nr-inter=0 / no-constrained-intra / strong-intra-smoothing / max-merge=2 / limit-refs=3 / no-limit-modes / me=1 / subme=2 / merange=57 / temporal-mvp / weightp / no-weightb / no-analyze-src-pics / deblock=1:1 / no-sao / no-sao-non-deblock / rd=3 / no-early-skip / rskip / no-fast-intra / no-tskip-fast / no-cu-lossless / no-b-intra / no-splitrd-skip / rdpenalty=0 / psy-rd=0.40 / psy-rdoq=0.00 / no-rd-refine / no-lossless / cbqpoffs=0 / crqpoffs=0 / rc=crf / crf=12.0 / qcomp=0.60 / qpstep=4 / stats-write=0 / stats-read=0 / vbv-maxrate=160000 / vbv-bufsize=160000 / vbv-init=0.9 / crf-max=0.0 / crf-min=0.0 / ipratio=1.40 / pbratio=1.30 / aq-mode=1 / aq-strength=0.40 / cutree / zone-count=0 / no-strict-cbr / qg-size=32 / no-rc-grain / qpmax=69 / qpmin=0 / no-const-vbv / sar=1 / overscan=0 / videoformat=5 / range=0 / colorprim=2 / transfer=2 / colormatrix=2 / chromaloc=0 / display-window=0 / max-cll=0,0 / min-luma=0 / max-luma=1023 / log2-max-poc-lsb=8 / vui-timing-info / vui-hrd-info / slices=1 / opt-qp-pps / opt-ref-list-length-pps / no-multi-pass-opt-rps / scenecut-bias=0.05 / no-opt-cu-delta-qp / no-aq-motion / no-hdr / no-hdr-opt / no-dhdr10-opt / no-idr-recovery-sei / analysis-reuse-level=5 / scale-factor=0 / refine-intra=0 / refine-inter=0 / refine-mv=0 / refine-ctu-distortion=0 / no-limit-sao / ctu-info=0 / no-lowpass-dct / refine-analysis-type=0 / copy-pic=1 / max-ausize-factor=1.0 / no-dynamic-refine / no-single-sei / no-hevc-aq / qp-adaptation-range=1.00
Default                                  : Yes
Forced                                   : No

Audio #1
ID                                       : 2
Format                                   : DTS XLL
Format/Info                              : Digital Theater Systems
Commercial name                          : DTS-HD Master Audio
Codec ID                                 : A_DTS
Duration                                 : 1 h 50 min
Bit rate mode                            : Variable
Bit rate                                 : 2 455 kb/s
Channel(s)                               : 6 channels
Channel layout                           : C L R Ls Rs LFE
Sampling rate                            : 48.0 kHz
Frame rate                               : 93.750 FPS (512 SPF)
Bit depth                                : 16 bits
Compression mode                         : Lossless
Stream size                              : 1.89 GiB (8%)
Title                                    : Ne.Zha.2019.CHINESE.2160p.BluRay.x265.10bit.SDR.DTS-HD.MA.5.1-SWTYBLZ
Language                                 : Chinese
Default                                  : Yes
Forced                                   : No

Audio #2
ID                                       : 3
Format                                   : AC-3
Format/Info                              : Audio Coding 3
Commercial name                          : Dolby Digital
Codec ID                                 : A_AC3
Duration                                 : 1 h 50 min
Bit rate mode                            : Constant
Bit rate                                 : 640 kb/s
Channel(s)                               : 6 channels
Channel layout                           : L R C LFE Ls Rs
Sampling rate                            : 48.0 kHz
Frame rate                               : 31.250 FPS (1536 SPF)
Compression mode                         : Lossy
Stream size                              : 504 MiB (2%)
Title                                    : Ne.Zha.2019.CHINESE.2160p.BluRay.x265.10bit.SDR.DTS-HD.MA.5.1-SWTYBLZ
Language                                 : Chinese
Service kind                             : Complete Main
Default                                  : No
Forced                                   : No

Audio #3
ID                                       : 4
Format                                   : MLP FBA 16-ch
Format/Info                              : Meridian Lossless Packing FBA with 16-channel presentation
Commercial name                          : Dolby TrueHD with Dolby Atmos
Codec ID                                 : A_TRUEHD
Duration                                 : 1 h 50 min
Bit rate mode                            : Variable
Bit rate                                 : 5 055 kb/s
Maximum bit rate                         : 8 640 kb/s
Channel(s)                               : 8 channels
Channel layout                           : L R C LFE Ls Rs Lb Rb
Sampling rate                            : 48.0 kHz
Frame rate                               : 1 200.000 FPS (40 SPF)
Compression mode                         : Lossless
Stream size                              : 3.89 GiB (16%)
Title                                    : Ne.Zha.2019.CHINESE.2160p.BluRay.x265.10bit.SDR.DTS-HD.MA.5.1-SWTYBLZ
Language                                 : English
Default                                  : No
Forced                                   : No
Number of dynamic objects                : 11
Bed channel count                        : 1 channel
Bed channel configuration                : LFE

Audio #4
ID                                       : 5
Format                                   : DTS XLL
Format/Info                              : Digital Theater Systems
Commercial name                          : DTS-HD Master Audio
Codec ID                                 : A_DTS
Duration                                 : 1 h 50 min
Bit rate mode                            : Variable
Bit rate                                 : 4 748 kb/s
Channel(s)                               : 8 channels
Channel layout                           : C L R LFE Lb Rb Lss Rss
Sampling rate                            : 48.0 kHz
Frame rate                               : 93.750 FPS (512 SPF)
Bit depth                                : 24 bits
Compression mode                         : Lossless
Stream size                              : 3.65 GiB (15%)
Title                                    : Ne.Zha.2019.CHINESE.2160p.BluRay.x265.10bit.SDR.DTS-HD.MA.5.1-SWTYBLZ
Language                                 : English
Default                                  : No
Forced                                   : No

Audio #5
ID                                       : 6
Format                                   : AC-3
Format/Info                              : Audio Coding 3
Commercial name                          : Dolby Digital
Codec ID                                 : A_AC3
Duration                                 : 1 h 50 min
Bit rate mode                            : Constant
Bit rate                                 : 640 kb/s
Channel(s)                               : 6 channels
Channel layout                           : L R C LFE Ls Rs
Sampling rate                            : 48.0 kHz
Frame rate                               : 31.250 FPS (1536 SPF)
Compression mode                         : Lossy
Stream size                              : 504 MiB (2%)
Title                                    : Ne.Zha.2019.CHINESE.2160p.BluRay.x265.10bit.SDR.DTS-HD.MA.5.1-SWTYBLZ
Language                                 : English
Service kind                             : Complete Main
Default                                  : No
Forced                                   : No

Text #1
ID                                       : 7
Format                                   : UTF-8
Codec ID                                 : S_TEXT/UTF8
Codec ID/Info                            : UTF-8 Plain Text
Duration                                 : 1 h 47 min
Bit rate                                 : 47 b/s
Count of elements                        : 1230
Stream size                              : 37.4 KiB (0%)
Title                                    : English-SRT
Language                                 : English
Default                                  : Yes
Forced                                   : Yes

Text #2
ID                                       : 8
Format                                   : UTF-8
Codec ID                                 : S_TEXT/UTF8
Codec ID/Info                            : UTF-8 Plain Text
Duration                                 : 1 h 42 min
Bit rate                                 : 0 b/s
Count of elements                        : 14
Stream size                              : 309 Bytes (0%)
Title                                    : English-FOREIGN-SRT
Language                                 : English
Default                                  : No
Forced                                   : No

Text #3
ID                                       : 9
Format                                   : PGS
Muxing mode                              : zlib
Codec ID                                 : S_HDMV/PGS
Codec ID/Info                            : Picture based subtitle format used on BDs/HD-DVDs
Duration                                 : 1 h 47 min
Bit rate                                 : 35.2 kb/s
Count of elements                        : 2451
Stream size                              : 27.2 MiB (0%)
Title                                    : English-PGS
Language                                 : English
Default                                  : No
Forced                                   : No

Text #4
ID                                       : 10
Format                                   : PGS
Muxing mode                              : zlib
Codec ID                                 : S_HDMV/PGS
Codec ID/Info                            : Picture based subtitle format used on BDs/HD-DVDs
Duration                                 : 1 h 47 min
Bit rate                                 : 47.2 kb/s
Count of elements                        : 2940
Stream size                              : 36.4 MiB (0%)
Title                                    : English-SDH-PGS
Language                                 : English
Default                                  : No
Forced                                   : No

Text #5
ID                                       : 11
Format                                   : PGS
Muxing mode                              : zlib
Codec ID                                 : S_HDMV/PGS
Codec ID/Info                            : Picture based subtitle format used on BDs/HD-DVDs
Duration                                 : 1 h 42 min
Bit rate                                 : 369 b/s
Count of elements                        : 28
Stream size                              : 278 KiB (0%)
Title                                    : English-FORCED-PGS
Language                                 : English
Default                                  : No
Forced                                   : Yes

Text #6
ID                                       : 12
Format                                   : PGS
Muxing mode                              : zlib
Codec ID                                 : S_HDMV/PGS
Codec ID/Info                            : Picture based subtitle format used on BDs/HD-DVDs
Duration                                 : 1 h 47 min
Bit rate                                 : 25.9 kb/s
Count of elements                        : 2416
Stream size                              : 20.0 MiB (0%)
Title                                    : Chinese-PGS
Language                                 : Chinese
Default                                  : No
Forced                                   : No

Menu
00:00:00.000                             : en:Chapter 01
00:05:56.458                             : en:Chapter 02
00:15:39.958                             : en:Chapter 03
00:25:46.125                             : en:Chapter 04
00:35:42.875                             : en:Chapter 05
00:41:50.208                             : en:Chapter 06
00:52:11.833                             : en:Chapter 07
01:00:58.917                             : en:Chapter 08
01:08:17.250                             : en:Chapter 09
01:16:35.167                             : en:Chapter 10
01:24:05.667                             : en:Chapter 11
01:43:22.500                             : en:Chapter 12




                                                                                                                                                                                                        
                                                                                                                                                                                                                                                                                                                                                                                                                                                                                                                                                                                                                                                                                                                                                                                                                                                      
4f47d16936937856d0112a77c4cd9dbe.torrent (60.91 KB)

回复

使用道具 举报

百度云电影论坛 ( 辽ICP备17019482号-3 )

本网站所有资源来自网络,如无意中侵犯了您的权益,请发邮件至 [email protected],立即清除相关链接

GMT+8, 2020-10-28 02:32 , Processed in 0.118177 second(s), 22 queries .

Powered by Discuz! X3.2

© 2001-2013 Comsenz Inc.

快速回复 返回顶部 返回列表