百度云电影论坛

 找回密码
 立即注册

超人:红色之子/超人:苏联之子 Superman.Red.Son.2020.2160p.UHD.BluRa...

[复制链接]

百度云电影 发表于 2020-3-14 20:14:41 | 显示全部楼层 |阅读模式
帖子完整标题:超人:红色之子/超人:苏联之子 Superman.Red.Son.2020.2160p.UHD.BluRay.X265.10bit.HDR.DTS-HD.MA.5.1-WhiteRhino 18.59GB





◎译  名 超人:红色之子 / 超人:苏联之子 / 超人:赤子
◎片  名 Superman: Red Son
◎年  代 2020
◎产  地 美国
◎类  别 动画
◎语  言 英语
◎上映日期 2020-02-25(美国)
◎IMDb评分  6.3/10 from 2635 users
◎片  长 85分钟
◎导  演 刘山姆 Sam Liu
◎编  剧 J·M·德马泰 J.M. DeMatteis / 马克·米勒 Mark Millar
◎主  演 詹森·艾萨克 Jason Isaacs
       艾米·阿克 Amy Acker
       戴德里克·巴德 Diedrich Bader
       保罗·威廉姆斯 Paul Williams
       菲尔·拉马 Phil LaMarr
       罗杰·克莱格·史密斯 Roger Craig Smith
       萨沙·罗伊茨 Sasha Roiz
       特拉维斯·威林厄姆 Travis Willingham
       雯特·艾娃·佐莉 Winter Ave Zoli
       菲尔·莫里斯 Phil Morris
       瓦内萨·马歇尔 Vanessa Marshall
       吉姆·麦司奇门 Jim Meskimen
       威廉·赛莱耶 William Salyers


◎标  签 DC | 动画 | 美国 | 漫画改编 | 超级英雄 | 2020 | 科幻 | 大超

◎简  介  

  红子动画真的来了,经典DC漫画《超人:红色之子》动画版发布首张剧照,苏联超人亮相。
  杰森·伊萨克斯(《蝙蝠侠:红影迷踪》)配音超人,“根妹”艾米·阿克配音路易斯·莱恩,戴德里克·巴德配音莱克斯·卢瑟,瓦内萨·马歇尔配音神奇女侠,罗杰·克莱格·史密斯配音蝙蝠侠。
  《红子》由刘山姆(《超人之死》《超人王朝》)执导,将于明年第一季发碟和登陆数字平台。漫画来自马克·米拉,提出:如果超人不是降落在美国小镇,而是在乌克兰,长大成为了苏联领导人,胸前的S变成镰刀和锤子,他和世界会是怎样?对社会主义、资本主义、历史和人性的探讨相当有意思。
Video
ID                                       : 1
Format                                   : HEVC
Format/Info                              : High Efficiency Video Coding
HDR format                               : SMPTE ST 2086, HDR10 compatible
Codec ID                                 : V_MPEGH/ISO/HEVC
Duration                                 : 1 h 24 min
Bit rate                                 : 29.0 Mb/s
Width                                    : 3 840 pixels
Height                                   : 2 160 pixels
Display aspect ratio                     : 16:9
Frame rate mode                          : Constant
Frame rate                               : 23.976 (24000/1001/189150) FPS
Color space                              : YUV
Chroma subsampling                       : 4:2:0 (Type 2)
Bit depth                                : 10 bits
Bits/(Pixel*Frame)                       : 0.146
Stream size                              : 17.1 GiB (92%)
Writing library                          : x265 3.3gbe2d82093:[Windows][GCC 10.0.1][64 bit] 10bit
Encoding settings                        : cpuid=1111039 / frame-threads=4 / numa-pools=20 / wpp / no-pmode / no-pme / no-psnr / no-ssim / log-level=2 / input-csp=1 / input-res=3840x2160 / interlace=0 / total-frames=121264 / level-idc=51 / high-tier=1 / uhd-bd=1 / ref=4 / no-allow-non-conformance / repeat-headers / annexb / aud / hrd / info / hash=0 / no-temporal-layers / no-open-gop / min-keyint=1 / keyint=24 / gop-lookahead=0 / bframes=4 / b-adapt=2 / b-pyramid / bframe-bias=0 / rc-lookahead=25 / lookahead-slices=4 / scenecut=40 / hist-scenecut=0 / radl=0 / no-splice / no-intra-refresh / ctu=64 / min-cu-size=8 / rect / no-amp / max-tu-size=32 / tu-inter-depth=1 / tu-intra-depth=1 / limit-tu=0 / rdoq-level=2 / dynamic-rd=0.00 / no-ssim-rd / signhide / no-tskip / nr-intra=0 / nr-inter=0 / no-constrained-intra / no-strong-intra-smoothing / max-merge=3 / limit-refs=3 / limit-modes / me=3 / subme=3 / merange=57 / temporal-mvp / no-frame-dup / no-hme / weightp / no-weightb / no-analyze-src-pics / deblock=-3:-3 / no-sao / no-sao-non-deblock / rd=4 / selective-sao=0 / no-early-skip / rskip / no-fast-intra / no-tskip-fast / no-cu-lossless / no-b-intra / no-splitrd-skip / rdpenalty=0 / psy-rd=2.00 / psy-rdoq=1.00 / no-rd-refine / no-lossless / cbqpoffs=0 / crqpoffs=0 / rc=crf / crf=17.0 / qcomp=0.60 / qpstep=4 / stats-write=0 / stats-read=0 / vbv-maxrate=160000 / vbv-bufsize=160000 / vbv-init=0.9 / crf-max=0.0 / crf-min=0.0 / ipratio=1.40 / pbratio=1.30 / aq-mode=2 / aq-strength=1.00 / cutree / zone-count=0 / no-strict-cbr / qg-size=32 / no-rc-grain / qpmax=69 / qpmin=0 / no-const-vbv / sar=1 / overscan=0 / videoformat=5 / range=0 / colorprim=9 / transfer=16 / colormatrix=9 / chromaloc=1 / chromaloc-top=2 / chromaloc-bottom=2 / display-window=0 / master-display=G(8500,39850)B(6550,2300)R(35400,14600)WP(15635,16450)L(40000000,50) / cll=816,338 / min-luma=0 / max-luma=1023 / log2-max-poc-lsb=8 / vui-timing-info / vui-hrd-info / slices=1 / no-opt-qp-pps / no-opt-ref-list-length-pps / no-multi-pass-opt-rps / scenecut-bias=0.05 / hist-threshold=0.01 / no-opt-cu-delta-qp / no-aq-motion / hdr10 / hdr10-opt / no-dhdr10-opt / no-idr-recovery-sei / analysis-reuse-level=0 / analysis-save-reuse-level=0 / analysis-load-reuse-level=0 / scale-factor=0 / refine-intra=0 / refine-inter=0 / refine-mv=1 / refine-ctu-distortion=0 / no-limit-sao / ctu-info=0 / no-lowpass-dct / refine-analysis-type=0 / copy-pic=1 / max-ausize-factor=1.0 / no-dynamic-refine / no-single-sei / no-hevc-aq / no-svt / no-field / qp-adaptation-range=1.00 / no-scenecut-aware-qpconformance-window-offsets / right=0 / bottom=0
Default                                  : Yes
Forced                                   : No
Color range                              : Limited
Color primaries                          : BT.2020
Transfer characteristics                 : PQ
Matrix coefficients                      : BT.2020 non-constant
Mastering display color primaries        : BT.2020
Mastering display luminance              : min: 0.0050 cd/m2, max: 4000 cd/m2
Maximum Content Light Level              : 816 cd/m2
Maximum Frame-Average Light Level        : 338 cd/m2

Audio
ID                                       : 2
Format                                   : DTS XLL
Format/Info                              : Digital Theater Systems
Commercial name                          : DTS-HD Master Audio
Codec ID                                 : A_DTS
Duration                                 : 1 h 24 min
Bit rate mode                            : Variable
Bit rate                                 : 2 435 kb/s
Channel(s)                               : 6 channels
Channel layout                           : C L R Ls Rs LFE
Sampling rate                            : 48.0 kHz
Frame rate                               : 93.750 FPS (512 SPF)
Bit depth                                : 16 bits
Compression mode                         : Lossless
Stream size                              : 1.43 GiB (8%)
Language                                 : English
Default                                  : Yes
Forced                                   : No

Text #1
ID                                       : 3
Format                                   : PGS
Muxing mode                              : zlib
Codec ID                                 : S_HDMV/PGS
Codec ID/Info                            : Picture based subtitle format used on BDs/HD-DVDs
Duration                                 : 1 h 20 min
Bit rate                                 : 31.8 kb/s
Count of elements                        : 1780
Stream size                              : 18.3 MiB (0%)
Language                                 : English
Default                                  : No
Forced                                   : No

Text #2
ID                                       : 4
Format                                   : PGS
Muxing mode                              : zlib
Codec ID                                 : S_HDMV/PGS
Codec ID/Info                            : Picture based subtitle format used on BDs/HD-DVDs
Duration                                 : 1 h 23 min
Bit rate                                 : 27.9 kb/s
Count of elements                        : 1632
Stream size                              : 16.7 MiB (0%)
Language                                 : French
Default                                  : No
Forced                                   : No

Text #3
ID                                       : 5
Format                                   : PGS
Muxing mode                              : zlib
Codec ID                                 : S_HDMV/PGS
Codec ID/Info                            : Picture based subtitle format used on BDs/HD-DVDs
Duration                                 : 1 h 23 min
Bit rate                                 : 30.7 kb/s
Count of elements                        : 1648
Stream size                              : 18.3 MiB (0%)
Language                                 : Spanish
Default                                  : No
Forced                                   : No

Menu
00:00:00.000                             : en:Chapter 01
00:08:15.453                             : en:Chapter 02
00:16:59.852                             : en:Chapter 03
00:27:19.179                             : en:Chapter 04
00:38:09.954                             : en:Chapter 05
00:48:38.374                             : en:Chapter 06
00:56:55.621                             : en:Chapter 07
01:02:34.459                             : en:Chapter 08
01:12:30.596                             : en:Chapter 09
01:21:39.978                             : en:Chapter 10




                                                                                                                                                                                                        
                                                                                                                                                                                                                                                                                                                                                                                                                                                                                                                                                                                                                                                                                                                                                                                                                                                      
378d56b69f7d44ce1ccacf18ecb7e17c.torrent (93.66 KB)

回复

使用道具 举报

百度云电影论坛 ( 辽ICP备17019482号-3 )

本网站所有资源来自网络,如无意中侵犯了您的权益,请发邮件至 [email protected],立即清除相关链接

GMT+8, 2020-10-25 21:26 , Processed in 0.122695 second(s), 22 queries .

Powered by Discuz! X3.2

© 2001-2013 Comsenz Inc.

快速回复 返回顶部 返回列表